Статистика раздачи
Размер:  1,37 GB   |    Зарегистрирован:  1 месяц 13 дней   |    Скачан:  0 раз

Полного источника не было: Никогда

 
   
 
 

StartSoft ®

Пол:
Не указан
Стаж:
10 месяцев 11 дней
Сообщений:
1456

Жестокие истории об отважных / Brutal tales of chivalry / Shôwa zankyô-den
Страна: Япония
Жанр: Боевик, криминал
Год выпуска: 1965
Продолжительность: 01:30:14
Перевод: Авторский (одноголосый закадровый) С.Кузнецов
Субтитры: английские
Оригинальная аудиодорожка: японский
Режиссер: Киеси Саеки / Kiyoshi Saeki
В ролях: Кэн Такакура, Рё Икэбэ, Ёсико Мита, Синдзиро Эхара, Хироки Мацуката, Мититаро Мидзусима, Нобуо Яна, Рюйти Фудзияма, Фусаторо Исидзима, Кэйко Ито, Тацуя Китаяма, Токио Кодзука, Хайме Кубо, Рюко Минаками, Хирохиса Наката
Описание: После второй мировой войны один из городов Японии представляет из себя печальное зрелище. Геносуки, второй босс группировки якудза держит чёрный рынок товаров в своих руках. Пользуясь послевоенным беспорядком Иваса и его бригада якудза захватывают то, что осталось после американских военных, контролируют чёрный рынок и хотят стать самой влиятельной бригадой в области Енко. Иваса убивает Геносуки, но прежде чем умереть он называет своим приемником Синдзи Тердзиму и заставляет его поклясться продолжить семейный бизнес и не пытаться отомстить за его смерть, и не действовать силовыми методами в выяснении отношений. Синдзи пытается делать, так как завещал ему босс, но постоянные нападки со стороны бригады Ивасы вынуждают на время забыть о слове, данном покойному боссу.-| IMDb 7.1 | КиноПоиск | Скачать сэмпл |
Исходник для рипа: BDRemux 1080p, за который спасибо porvaliparus
-
Качество видео: BDRip
Формат видео: AVI
Видео: 720x304 (2.37:1), 23.976 fps, XviD build 67 ~1835 kbps avg, 0.350 bit/pixel
Аудио 1: 48 kHz, AC3 Dolby Digital, 2/0 (L,R) ch, ~128 kbps | Авторский одноголосый закадровый (С.Кузнецов)
Аудио 2: 48 kHz, AC3 Dolby Digital, 2/0 (L,R) ch, ~192 kbps | Японский
Формат субтитров: softsub (SRT)

MediaInfo

Общее
Полное имя : C:\ZHestokie.istorii.ob.otvazhnyh.1965.BDRip\ZHestokie.istorii.ob.otvazhnyh.1965.BDRip.avi
Формат : AVI
Формат/Информация : Audio Video Interleave
Размер файла : 1,37 Гбайт
Продолжительность : 1 ч. 30 м.
Общий поток : 2169 Кбит/сек
Название фильма : Жестокие истории об отважных / Showa zankyo-den (Brutal tales of chivalry1965) BDRip
Режиссёр : Киеси Саеки / Kiyoshi Saeki
Жанр : Боевик, криминал
Программа кодирования : VirtualDubMod 1.5.10.2 (build 2542/release)
Формат оригинала/Имя : Художественный фильм
Авторское право : Toei Tokyo
Примечание : vitolinform
Видео
Идентификатор : 0
Формат : MPEG-4 Visual
Профиль формата : Advanced Simple@L5
Настройки формата : BVOP2
Параметр BVOP формата : 2
Параметр QPel формата : Нет
Параметр GMC формата : Без точки перехода
Параметр матрицы формата : Default (MPEG)
Идентификатор кодека : XVID
Идентификатор кодека/Подсказка : XviD
Продолжительность : 1 ч. 30 м.
Битрейт : 1835 Кбит/сек
Ширина : 720 пикселей
Высота : 304 пикселя
Соотношение сторон : 2,35:1
Частота кадров : 23,976 (24000/1001) кадра/сек
Цветовое пространство : YUV
Субдискретизация насыщенности : 4:2:0
Битовая глубина : 8 бит
Тип развёртки : Прогрессивная
Метод сжатия : С потерями
Бит/(Пиксели*Кадры) : 0.350
Размер потока : 1,16 Гбайт (85%)
Библиотека кодирования : XviD 67
Аудио #1
Идентификатор : 1
Формат : AC-3
Формат/Информация : Audio Coding 3
Идентификатор кодека : 2000
Продолжительность : 1 ч. 30 м.
Вид битрейта : Постоянный
Битрейт : 128 Кбит/сек
Каналы : 2 канала
Расположение каналов : Front: L R
Частота : 48,0 КГц
Частота кадров : 31,250 кадров/сек (1536 SPF)
Битовая глубина : 16 бит
Метод сжатия : С потерями
Размер потока : 82,6 Мбайт (6%)
Выравнивание : Разделение по промежуткам
Продолжительность промежутка : 42 мс. (1,00 видеокадр)
Время предзагрузки промежутка : 500 мс.
Заголовок : Russian (AVO С.Кузнецов(
ServiceKind/String : Complete Main
Аудио #2
Идентификатор : 2
Формат : AC-3
Формат/Информация : Audio Coding 3
Идентификатор кодека : 2000
Продолжительность : 1 ч. 30 м.
Вид битрейта : Постоянный
Битрейт : 192 Кбит/сек
Каналы : 2 канала
Расположение каналов : Front: L R
Частота : 48,0 КГц
Частота кадров : 31,250 кадров/сек (1536 SPF)
Битовая глубина : 16 бит
Метод сжатия : С потерями
Размер потока : 124 Мбайт (9%)
Выравнивание : Разделение по промежуткам
Продолжительность промежутка : 42 мс. (1,00 видеокадр)
Время предзагрузки промежутка : 500 мс.
Заголовок : Japanese
ServiceKind/String : Complete Main

Скриншот c названием фильма

Скриншоты

[torrents24.ru].t61274.torrent 
Торрент: Зарегистрирован [ 2018-11-06 17:55 ] · 97A455108411F0A1D88F1F6605AED5510259118D

Скачать .torrent

Скачать

14 KB

Статус: проверено
Скачан: 0 раз
Размер: 1,37 GB

Профиль [ЛС]
Показать сообщения:    

Текущее время: 19-Дек 18:46

Часовой пояс: UTC + 3



Вы не можете начинать темы
Вы не можете отвечать на сообщения
Вы не можете редактировать свои сообщения
Вы не можете удалять свои сообщения
Вы не можете голосовать в опросах
Вы не можете прикреплять файлы к сообщениям
Вы можете скачивать файлы