Статистика раздачи
Размер:  4,19 GB   |    Зарегистрирован:  6 дней   |    Скачан:  0 раз

Полного источника не было: Никогда

 
   
 
 

RussianGirl ®

Пол:
Не указан
Стаж:
9 месяцев 4 дня
Сообщений:
1020

Вперёд на восток / Караван на восток / Wagons East
Страна: США
Жанр: комедия, вестерн
Год выпуска: 1994
Продолжительность: 01:47:48
Перевод: Авторский (одноголосый закадровый) Гаврилов
Субтитры: нет
Оригинальная аудиодорожка: английский
Режиссер: Питер Маркл / Peter Markle
В ролях: Джон Кэнди, Ричард Льюис, Джон С. МакГинли, Эллен Грин, Роберт Пикардо, Эд Лоутер, Уильям Сэндерсон, Родни Э. Грэнт, Локлин Манро, Расселл Минз, Итэн Филлипс
Описание: Джон Кэнди в роли проводника, ведущего фургоны не на запад, куда обычно устремлялись первые поселенцы, а на восток. Люди, которые наняли его, все были неудачниками, не вынесшими тягот и трудностей. Они решили вернуться туда, откуда приехали. Злодей, строящий железную дорогу на запад и получающий от правительства крупные субсидии, строит им всякие пакости, подсылая своих людей, чтобы остановить их. По форме это вестерн, но сделан он в форме пародийной комедии, достаточно остроумной и смешной.
Сэмпл: https://yadi.sk/i/RLiIBxZ7A7FTFw
Тип релиза: WEBRip 720p
Контейнер: MKV
Видео: AVC, 1280x720 [16:9], 23.976 fps, ~5178 kbps
Аудио: AC3, 2.0 ch., 48 kHz, 192 kbps - Андрей Гаврилов
Аудио 2: AAC-LC, 2.0 ch., 48 kHz, 192 kbps - english

MediaInfo

Общее
Уникальный идентификатор : 218533271066243700712806605760603170022 (0xA467FA208C304DBDBF726010192924E6)
Полное имя : D:\Torrents\Wagons East [1994 720p WEBRip].mkv
Формат : Matroska
Версия формата : Version 4
Размер файла : 4,19 Гбайт
Продолжительность : 1 ч. 47 м.
Общий поток : 5561 Кбит/сек
Дата кодирования : UTC 2018-11-05 11:42:12
Программа кодирования : mkvmerge v19.0.0 ('Brave Captain') 32-bit
Библиотека кодирования : libebml v1.3.5 + libmatroska v1.4.8
Видео
Идентификатор : 1
Формат : AVC
Формат/Информация : Advanced Video Codec
Профиль формата : High@L4.1
Настройки формата : CABAC / 5 Ref Frames
Параметр CABAC формата : Да
Параметр RefFrames формата : 5 кадров
Идентификатор кодека : V_MPEG4/ISO/AVC
Продолжительность : 1 ч. 47 м.
Битрейт : 5178 Кбит/сек
Ширина : 1280 пикселей
Высота : 720 пикселей
Соотношение сторон : 16:9
Режим частоты кадров : Постоянный
Частота кадров : 23,976 (24000/1001) кадра/сек
Цветовое пространство : YUV
Субдискретизация насыщенности : 4:2:0
Битовая глубина : 8 бит
Тип развёртки : Прогрессивная
Бит/(Пиксели*Кадры) : 0.234
Размер потока : 3,90 Гбайт (93%)
Библиотека кодирования : x264 core 155 r2901 7d0ff22
Настройки программы : cabac=1 / ref=5 / deblock=1:-3:-3 / analyse=0x3:0x133 / me=umh / subme=10 / psy=1 / psy_rd=1.05:0.15 / mixed_ref=1 / me_range=16 / chroma_me=1 / trellis=2 / 8x8dct=1 / cqm=0 / deadzone=21,11 / fast_pskip=0 / chroma_qp_offset=-3 / threads=12 / lookahead_threads=1 / sliced_threads=0 / nr=0 / decimate=1 / interlaced=0 / bluray_compat=0 / constrained_intra=0 / bframes=3 / b_pyramid=2 / b_adapt=2 / b_bias=0 / direct=3 / weightb=1 / open_gop=0 / weightp=2 / keyint=250 / keyint_min=24 / scenecut=40 / intra_refresh=0 / rc_lookahead=50 / rc=crf / mbtree=1 / crf=18.0 / qcomp=0.60 / qpmin=0 / qpmax=69 / qpstep=4 / ip_ratio=1.40 / aq=3:0.65
Язык : English
Default : Да
Forced : Нет
Аудио #1
Идентификатор : 2
Формат : AC-3
Формат/Информация : Audio Coding 3
Коммерческое название : Dolby Digital
Идентификатор кодека : A_AC3
Продолжительность : 1 ч. 47 м.
Вид битрейта : Постоянный
Битрейт : 192 Кбит/сек
Каналы : 2 канала
Channel layout : L R
Частота : 48,0 КГц
Частота кадров : 31,250 кадров/сек (1536 SPF)
Битовая глубина : 16 бит
Метод сжатия : С потерями
Размер потока : 148 Мбайт (3%)
Заголовок : AVO Gavrilov
Язык : Russian
ServiceKind/String : Complete Main
Default : Да
Forced : Нет
Аудио #2
Идентификатор : 3
Формат : AAC LC
Формат/Информация : Advanced Audio Codec Low Complexity
Идентификатор кодека : A_AAC-2
Продолжительность : 1 ч. 47 м.
Битрейт : 192 Кбит/сек
Каналы : 2 канала
Channel layout : L R
Частота : 48,0 КГц
Частота кадров : 46,875 кадров/сек (1024 SPF)
Метод сжатия : С потерями
Размер потока : 145 Мбайт (3%)
Язык : English
Default : Нет
Forced : Нет

Скриншоты

Внимание! 05.11.2018 торрент перезалит - заменена английская дорожка.
[torrents24.ru].t61268.torrent 
Торрент: Зарегистрирован [ 2018-11-06 17:55 ] · 2C970A1D117B4F4259A0DB769CA0D2D716D80503

Скачать .torrent

Скачать

11 KB

Статус: проверено
Скачан: 0 раз
Размер: 4,19 GB

Профиль [ЛС]
Показать сообщения:    

Текущее время: 13-Ноя 00:55

Часовой пояс: UTC + 3



Вы не можете начинать темы
Вы не можете отвечать на сообщения
Вы не можете редактировать свои сообщения
Вы не можете удалять свои сообщения
Вы не можете голосовать в опросах
Вы не можете прикреплять файлы к сообщениям
Вы можете скачивать файлы