Статистика раздачи
Размер:  146 MB   |    Зарегистрирован:  6 дней   |    Скачан:  0 раз

Полного источника не было: Никогда

 
   
 
 

Golden ®

Пол:
Не указан
Стаж:
9 месяцев 8 дней
Сообщений:
304

Смерть Деда Мороза
La mort du Père Noël- Страна: Франция
Жанр: комедия абсурда, черный юмор, короткий метр
Год выпуска: 2012
Продолжительность: 00:05:49
Перевод: Профессиональный (многоголосый закадровый) Эгоист ТВ
Субтитры: русские (перевод И.Рыбкиной, ECLAIR), английские, французские, французские-телетекст, немецкие, нидерландские, румынские, испанские
Режиссер: Лоран Фирод / Laurent FirodeВ ролях: Мустафа Абурашид / Mustapha Abourachid (Le Père Noël), Ирен Измайлофф / Irène Ismailoff (La mere), Брюно Форже / Bruno Forget (Le mari), Жан-Мишель Марне / Jean-Michel Marnet (Le suicide), Патрик Дросс / Patrick Dross (Le chef des scouts)Описание: По странному стечению обстоятельств Дед Мороз оказался мертв. Но кто же был виновником его смерти?..
Доп. информация: Hot Bird (13.0°E) TV5MONDE Europe DVB-S
Награды: приз зрительских симпатий Dijon "Fenêtres sur Courts" 2012; приз зрительских симпатий Jouy-en-Josas 2012. Участник Festival international du court-métrage de Berlin (Interfilm) 2013.
Качество видео: DVB
Формат видео: MKV
Видео: MPEG Video 2, 720x576@1024x576 (16:9), 25 fps, ~3039 kbps avg, 0.293 bit/pixel
Аудио 2: AC3, 2 ch, 48 kHz, 192 kbps - русский
Аудио 2: MPEG Audio 2, 2 ch, 48 kHz, 192 kbps - французский
Формат субтитров: softsub (SRT)

MediaInfo

General
Unique ID : 6851088873281245017256118746603700057 (0x52778C2B9A80330043AC09DAD65BF59)
Complete name : [apreder]MM_La_mort_du_Pere_Noel(2012)DVB.mkv
Format : Matroska
Format version : Version 2
File size : 146 MiB
Duration : 5 min 49 s
Overall bit rate mode : Variable
Overall bit rate : 3 499 kb/s
Encoded date : UTC 2018-11-04 11:20:38
Writing application : mkvmerge v28.2.0 ('The Awakening') 64-bit
Writing library : libebml v1.3.6 + libmatroska v1.4.9
Cover : Yes
Attachments : cover.png / small_cover.png
Video
ID : 1
Format : MPEG Video
Format version : Version 2
Format profile : Main@Main
Format settings : CustomMatrix / BVOP
Format settings, BVOP : Yes
Format settings, Matrix : Custom
Format settings, GOP : Variable
Format settings, picture structure : Frame
Codec ID : V_MPEG2
Codec ID/Info : MPEG 1 or 2 Video
Duration : 5 min 49 s
Bit rate mode : Variable
Bit rate : 3 046 kb/s
Maximum bit rate : 15.0 Mb/s
Width : 720 pixels
Height : 576 pixels
Display aspect ratio : 16:9
Active Format Description : Letterbox 16:9 image
Frame rate mode : Constant
Frame rate : 25.000 FPS
Standard : PAL
Color space : YUV
Chroma subsampling : 4:2:0
Bit depth : 8 bits
Scan type : Interlaced
Scan order : Top Field First
Compression mode : Lossy
Bits/(Pixel*Frame) : 0.294
Stream size : 127 MiB (87%)
Default : Yes
Forced : No
Audio #1
ID : 2
Format : AC-3
Format/Info : Audio Coding 3
Commercial name : Dolby Digital
Codec ID : A_AC3
Duration : 5 min 49 s
Bit rate mode : Constant
Bit rate : 192 kb/s
Channel(s) : 2 channels
Channel layout : L R
Sampling rate : 48.0 kHz
Frame rate : 31.250 FPS (1536 SPF)
Bit depth : 16 bits
Compression mode : Lossy
Stream size : 8.00 MiB (5%)
Language : Russian
Service kind : Complete Main
Default : Yes
Forced : No
Audio #2
ID : 3
Format : MPEG Audio
Format version : Version 1
Format profile : Layer 2
Format settings : Joint stereo / Intensity Stereo + MS Stereo
Codec ID : A_MPEG/L2
Codec ID/Hint : MP2
Duration : 5 min 49 s
Bit rate mode : Constant
Bit rate : 192 kb/s
Channel(s) : 2 channels
Sampling rate : 48.0 kHz
Compression mode : Lossy
Stream size : 8.00 MiB (5%)
Language : French
Default : No
Forced : No
Text #1
ID : 4
Format : UTF-8
Codec ID : S_TEXT/UTF8
Codec ID/Info : UTF-8 Plain Text
Language : Russian
Default : No
Forced : No
Text #2
ID : 5
Format : UTF-8
Codec ID : S_TEXT/UTF8
Codec ID/Info : UTF-8 Plain Text
Language : English
Default : No
Forced : No
Text #3
ID : 6
Format : UTF-8
Codec ID : S_TEXT/UTF8
Codec ID/Info : UTF-8 Plain Text
Language : French
Default : No
Forced : No
Text #4
ID : 7
Format : UTF-8
Codec ID : S_TEXT/UTF8
Codec ID/Info : UTF-8 Plain Text
Title : Teletexte
Language : French
Default : No
Forced : No
Text #5
ID : 8
Format : UTF-8
Codec ID : S_TEXT/UTF8
Codec ID/Info : UTF-8 Plain Text
Language : German
Default : No
Forced : No
Text #6
ID : 9
Format : UTF-8
Codec ID : S_TEXT/UTF8
Codec ID/Info : UTF-8 Plain Text
Language : Dutch
Default : No
Forced : No
Text #7
ID : 10
Format : UTF-8
Codec ID : S_TEXT/UTF8
Codec ID/Info : UTF-8 Plain Text
Language : rom
Default : No
Forced : No
Text #8
ID : 11
Format : UTF-8
Codec ID : S_TEXT/UTF8
Codec ID/Info : UTF-8 Plain Text
Language : Spanish
Default : No
Forced : No

Скриншот c названием фильма

Скриншоты

Резервные скриншоты

- [1'468]
[torrents24.ru].t61246.torrent 
Торрент: Зарегистрирован [ 2018-11-06 17:55 ] · 9F571F41B345C144F507D789E575519B5E2857A9

Скачать .torrent

Скачать

2 KB

Статус: проверено
Скачан: 0 раз
Размер: 146 MB

Профиль [ЛС]
Показать сообщения:    

Текущее время: 13-Ноя 00:56

Часовой пояс: UTC + 3



Вы не можете начинать темы
Вы не можете отвечать на сообщения
Вы не можете редактировать свои сообщения
Вы не можете удалять свои сообщения
Вы не можете голосовать в опросах
Вы не можете прикреплять файлы к сообщениям
Вы можете скачивать файлы