Статистика раздачи
Размер:  303 MB   |    Зарегистрирован:  9 дней   |    Скачан:  0 раз

Полного источника не было: Никогда

 
   
 
 

Awrora ®

Пол:
Не указан
Стаж:
9 месяцев 4 дня
Сообщений:
287

Надпись на срубе
Жанр: драма, экранизация
Год выпуска: 1968
Продолжительность: 00:18:08
Режиссёр: Ростислав Бабич
В ролях: Сергей Калинин, Борис Владомирский, Мария Захаревич, Роман Филиппов
Описание: По рассказу Янки Брыля.
Старый рыбак Вечора всю жизнь прожил в родном селе, всё здесь ему знакомо и дорого. В эту землю он вложил свой труд, защищал от врагов в трудную годину. Фильм рассказывает о последнем дне жизни старого доброго человека.
Семпл: http://sendfile.su/1452080
Качество видео: DVB
Формат видео: MKV
Видео: MPEG4 AVC 720x576 (4:3) 25,000 кадров/сек 2096 Кбит/сек
Аудио: MPEG1 Layer 2 48,0 КГц 2 канала 192 Кбит/сек Русский

MediaInfo

Общее
Уникальный идентификатор : 189887878647578683198513031411533494456 (0x8EDB133D72631E979EAC3787894A38B8)
Полное имя : M:\Torrents\СВОИ\Надпись на срубе.mkv
Формат : Matroska
Версия формата : Version 4 / Version 2
Размер файла : 303 Мбайт
Продолжительность : 18 м.
Общий поток : 2335 Кбит/сек
Дата кодирования : UTC 2018-10-30 18:04:37
Программа кодирования : mkvmerge v7.3.0 ('Nouages') 64bit built on Oct 22 2014 18:53:34
Библиотека кодирования : libebml v1.3.0 + libmatroska v1.4.1
DURATION : 00:18:07.896000000
NUMBER_OF_FRAMES : 45329
NUMBER_OF_BYTES : 26109504
_STATISTICS_WRITING_APP : mkvmerge v7.3.0 ('Nouages') 64bit built on Oct 22 2014 18:53:34
_STATISTICS_WRITING_DATE_UTC : 2018-10-30 18:04:37
_STATISTICS_TAGS : BPS DURATION NUMBER_OF_FRAMES NUMBER_OF_BYTES
Видео
Идентификатор : 1
Формат : AVC
Формат/Информация : Advanced Video Codec
Профиль формата : High@L3.0
Параметр CABAC формата : Да
Параметр ReFrames формата : 4 кадра
Идентификатор кодека : V_MPEG4/ISO/AVC
Продолжительность : 18 м.
Битрейт : 2096 Кбит/сек
Ширина : 720 пикселей
Высота : 576 пикселей
Соотношение сторон : 4:3
Соотношение сторон в оригинале : 4:3
Режим частоты кадров : Постоянный
Частота кадров : 25,000 кадров/сек
Стандарт вещания : Component
Цветовое пространство : YUV
Субдискретизация насыщенности : 4:2:0
Битовая глубина : 8 бит
Тип развёртки : Чересстрочная
Порядок развёртки : Верхнее поле первое
Бит/(Пиксели*Кадры) : 0.202
Размер потока : 272 Мбайт (90%)
Default : Да
Forced : Нет
Основные цвета : BT.601 PAL
Характеристики трансфера : BT.470 System B, BT.470 System G
Коэффициенты матрицы : BT.601
colour_range : Limited
Аудио
Идентификатор : 2
Формат : MPEG Audio
Версия формата : Version 1
Профиль формата : Layer 2
Идентификатор кодека : A_MPEG/L2
Идентификатор кодека/Подсказка : MP2
Продолжительность : 18 м.
Вид битрейта : Постоянный
Битрейт : 192 Кбит/сек
Каналы : 2 канала
Частота : 48,0 КГц
Метод сжатия : С потерями
Задержка видео : -16 мс.
Размер потока : 24,9 Мбайт (8%)
Язык : Russian
Default : Да
Forced : Нет

Скриншоты

[torrents24.ru].t60836.torrent 
Торрент: Зарегистрирован [ 2018-11-03 16:55 ] · BA340A4ABE711B11F5DEE20454FF6C2A39E62082

Скачать .torrent

Скачать

12 KB

Статус: проверено
Скачан: 0 раз
Размер: 303 MB

Профиль [ЛС]
Показать сообщения:    

Текущее время: 13-Ноя 00:56

Часовой пояс: UTC + 3



Вы не можете начинать темы
Вы не можете отвечать на сообщения
Вы не можете редактировать свои сообщения
Вы не можете удалять свои сообщения
Вы не можете голосовать в опросах
Вы не можете прикреплять файлы к сообщениям
Вы можете скачивать файлы