Статистика раздачи
Размер:  1,99 GB   |    Зарегистрирован:  1 месяц 14 дней   |    Скачан:  0 раз

Полного источника не было: Никогда

 
   
 
 

Поля ®

Пол:
Не указан
Стаж:
10 месяцев 8 дней
Сообщений:
518

Dave Holland Trio
Lotos Jazz Festival 2016

-
Жанр: Post-Bop / Contemporary Jazz
Продолжительность: 00:53:03
Год выпуска: 2016
Musicians:
Dave Holland - bass
Chris Potter - tenor sax, soprano sax
Obed Calvaire - drums
Track List:
- Alt (Chris Potter)
- Passing Time (Dave Holland)
- Good Hope (Chris Potter)
- Take The Coltrane (Duke Ellington)
Доп. информация:
Lotos Jazz Festival, 18. Zadymka Jazzowa
Klub Klimat, Bielsko-Biała - Pologne / Poland, 03.03.2016

Dave Holland Official Site
Dave Holland from Wikipedia, the free encyclopedia
Chris Potter Official Site
Chris Potter from Wikipedia, the free encyclopedia
Огромная Благодарность ssegaster – за предоставленный материал ...
Спасибо большое !!!
Качество: HDTV
Разрешение видео/развертка: 1080i
Контейнер: TS
Видео кодек: H.264
Аудио кодек: MPEG
Видео: 4 851 Kbps, 1920*1080 (16:9), at 25.000 fps, AVC (Component) (High@L4.0) (CABAC / 4 Ref Frames)
Аудио: Russian, 256 Kbps, 48.0 KHz, 2 channels, MPEG Audio (Version 1) (Layer 2)

Отчёт MediaInfo

General
ID : 1 (0x1)
Complete name : C:\rutracker.org_mezzo live HD\mezzo live HD_Dave Holland Trio - Lotos Jazz Festival 2016.ts
Format : MPEG-TS
File size : 1.99 GiB
Duration : 53mn 3s
Overall bit rate mode : Variable
Overall bit rate : 5 375 Kbps
Video
ID : 203 (0xCB)
Menu ID : 20103 (0x4E87)
Format : AVC
Format/Info : Advanced Video Codec
Format profile : High@L4.0
Format settings, CABAC : Yes
Format settings, ReFrames : 4 frames
Format settings, GOP : M=4, N=28
Codec ID : 27
Duration : 53mn 3s
Bit rate : 4 851 Kbps
Width : 1 920 pixels
Height : 1 080 pixels
Display aspect ratio : 16:9
Frame rate : 25.000 fps
Standard : Component
Color space : YUV
Chroma subsampling : 4:2:0
Bit depth : 8 bits
Scan type : Interlaced
Scan order : Top Field First
Bits/(Pixel*Frame) : 0.094
Stream size : 1.80 GiB (90%)
Color primaries : BT.709
Transfer characteristics : BT.709
Matrix coefficients : BT.709
Audio
ID : 303 (0x12F)
Menu ID : 20103 (0x4E87)
Format : MPEG Audio
Format version : Version 1
Format profile : Layer 2
Codec ID : 3
Duration : 53mn 3s
Bit rate mode : Constant
Bit rate : 256 Kbps
Channel(s) : 2 channels
Sampling rate : 48.0 KHz
Compression mode : Lossy
Stream size : 97.2 MiB (5%)
Language : Russian
[torrents24.ru].t60712.torrent 
Торрент: Зарегистрирован [ 2018-11-02 15:40 ] · 924604DA3E22CCFC48C302035771CCD7B0722454

Скачать .torrent

Скачать

20 KB

Статус: проверено
Скачан: 0 раз
Размер: 1,99 GB

Профиль [ЛС]
Показать сообщения:    

Текущее время: 16-Дек 19:18

Часовой пояс: UTC + 3



Вы не можете начинать темы
Вы не можете отвечать на сообщения
Вы не можете редактировать свои сообщения
Вы не можете удалять свои сообщения
Вы не можете голосовать в опросах
Вы не можете прикреплять файлы к сообщениям
Вы можете скачивать файлы