Статистика раздачи
Размер:  315 MB   |    Зарегистрирован:  1 месяц 14 дней   |    Скачан:  0 раз

Полного источника не было: Никогда

 
   
 
 

Армен ®

Пол:
Не указан
Стаж:
10 месяцев 7 дней
Сообщений:
288

8KO feat. Alexandra Stan - Ocean Жанр: Pop / Dance
Продолжительность: 00:02:43
Год выпуска: 2018
Описание: Стильная мелодия, обворожительные девушки - певица Alexandra Stan знает, как сделать хит. Любой клуб или вечеринка не могут обойтись без (хотя бы) одной песни румынской поп-дивы. По этой причине, чтобы фанаты не забывали про своего профи в дэнс-синглах, певица выпустила очередное зажигательное творение в сотрудничестве с DJ и продюсером 8KO.
Качество: UHDTVRip
Разрешение видео/развертка: 2160p
Контейнер: MPEG4
Видео кодек: AVC
Аудио кодек: AAC
Видео: 3840 x 1632 (2.353) at 24.000 fps AVC at 16,0 Мбит/сек
Аудио: 2 канала, 44,1 КГц AAC at 192 Кбит/сек

Отчёт MediaInfo / BDInfo

Формат : MPEG-4
Профиль формата : Base Media
Идентификатор кодека : isom (isom/iso2/avc1/mp41)
Размер файла : 315 Мбайт
Продолжительность : 2 м. 43 с.
Общий поток : 16,2 Мбит/сек
Программа кодирования : Lavf57.83.100
Видео
Идентификатор : 1
Формат : AVC
Формат/Информация : Advanced Video Codec
Профиль формата : High@L5.1
Параметр CABAC формата : Да
Параметр ReFrames формата : 3 кадра
Параметр GOP формата : M=4, N=72
Идентификатор кодека : avc1
Идентификатор кодека/Информация : Advanced Video Coding
Продолжительность : 2 м. 43 с.
Битрейт : 16,0 Мбит/сек
Ширина : 3840 пикселей
Высота : 1632 пикселя
Соотношение сторон : 2,35:1
Режим частоты кадров : Постоянный
Частота кадров : 24,000 кадра/сек
Цветовое пространство : YUV
Субдискретизация насыщенности : 4:2:0
Битовая глубина : 8 бит
Тип развёртки : Прогрессивная
Бит/(Пиксели*Кадры) : 0.106
Размер потока : 312 Мбайт (99%)
Аудио
Идентификатор : 2
Формат : AAC
Формат/Информация : Advanced Audio Codec
Профиль формата : LC
Идентификатор кодека : 40
Продолжительность : 2 м. 43 с.
Вид битрейта : Постоянный
Битрейт : 192 Кбит/сек
Каналы : 2 канала
Расположение каналов : Front: L R
Частота : 44,1 КГц
Частота кадров : 43,066 кадра/сек (1024 spf)
Метод сжатия : С потерями
Размер потока : 3,74 Мбайт (1%)
Default : Да
Alternate group : 1

Скриншоты

[torrents24.ru].t60708.torrent 
Торрент: Зарегистрирован [ 2018-11-02 15:40 ] · 7A66ABAFC9E1EB2EFE0D1746EA53983F110906AA

Скачать .torrent

Скачать

13 KB

Статус: проверено
Скачан: 0 раз
Размер: 315 MB

Профиль [ЛС]
Показать сообщения:    

Текущее время: 16-Дек 17:55

Часовой пояс: UTC + 3



Вы не можете начинать темы
Вы не можете отвечать на сообщения
Вы не можете редактировать свои сообщения
Вы не можете удалять свои сообщения
Вы не можете голосовать в опросах
Вы не можете прикреплять файлы к сообщениям
Вы можете скачивать файлы