Статистика раздачи
Размер:  645 MB   |    Зарегистрирован:  1 месяц 17 дней   |    Скачан:  0 раз

Полного источника не было: Никогда

 
   
 
 

Cyber ®

Пол:
Не указан
Стаж:
10 месяцев 15 дней
Сообщений:
494

The Soggy Bottom Boys - I Am A Man Of Constant Sorrow
Жанр: Country
Продолжительность: 3:24
Год выпуска: 2000
Описание: из фильма "О, где же ты, брат?" / "O Brother, Where Art Thou?"
Качество: BDRemux
Разрешение видео/развертка: 1080p
Контейнер: MKV
Видео кодек: H.264
Аудио кодек: DTS
Видео: x264, 1920x1080, 23500kbps, 23,976fps
Аудио: DTS-HD Master Audio/ 3072 kbps / 2.0 / 96 kHz / 24-bit (DTS Core: 255 kbps / 2.0 / 48 kHz / 24-bit)

Отчёт MediaInfo / BDInfo

General
Unique ID : 207439263215054521687763846177419178065 (0x9C0F594F54D18A4F85AAC2E1FB183051)
Complete name : \The Soggy Bottom Boys - I Am A Man Of Constant Sorrow (1080p).mkv
Format : Matroska
Format version : Version 4 / Version 2
File size : 645 MiB
Duration : 3 min 24 s
Overall bit rate : 26.5 Mb/s
Encoded date : UTC 2018-10-21 05:33:23
Writing application : mkvmerge v25.0.0 ('Prog Noir') 64-bit
Writing library : libebml v1.3.6 + libmatroska v1.4.9
Video
ID : 1
Format : AVC
Format/Info : Advanced Video Codec
Format profile : High@L4.1
Format settings, CABAC : Yes
Format settings, ReFrames : 4 frames
Codec ID : V_MPEG4/ISO/AVC
Duration : 3 min 24 s
Bit rate : 23.5 Mb/s
Width : 1 920 pixels
Height : 1 080 pixels
Display aspect ratio : 16:9
Frame rate mode : Constant
Frame rate : 23.976 (24000/1001) FPS
Standard : Component
Color space : YUV
Chroma subsampling : 4:2:0
Bit depth : 8 bits
Scan type : Progressive
Bits/(Pixel*Frame) : 0.472
Stream size : 571 MiB (89%)
Default : Yes
Forced : No
Color range : Limited
Color primaries : BT.709
Transfer characteristics : BT.709
Matrix coefficients : BT.709
Audio
ID : 2
Format : DTS
Format/Info : Digital Theater Systems
Format profile : MA / Core
Mode : 16
Format settings, Endianness : Big
Codec ID : A_DTS
Duration : 3 min 24 s
Bit rate mode : Variable / Constant
Bit rate : 3 072 kb/s / 255 kb/s
Channel(s) : 2 channels
Channel positions : Front: L R
Sampling rate : 96.0 kHz / 48.0 kHz
Frame rate : 93.750 FPS (512 spf)
Bit depth : 24 bits
Compression mode : Lossless / Lossy
Stream size : 73.6 MiB (11%)
Language : English
Default : Yes
Forced : No

Скриншоты

[torrents24.ru].t60703.torrent 
Торрент: Зарегистрирован [ 2018-11-02 15:40 ] · F5311EF2737AC289535755E398A5E5806AC72C72

Скачать .torrent

Скачать

13 KB

Статус: проверено
Скачан: 0 раз
Размер: 645 MB

Профиль [ЛС]
Показать сообщения:    

Текущее время: 19-Дек 19:23

Часовой пояс: UTC + 3



Вы не можете начинать темы
Вы не можете отвечать на сообщения
Вы не можете редактировать свои сообщения
Вы не можете удалять свои сообщения
Вы не можете голосовать в опросах
Вы не можете прикреплять файлы к сообщениям
Вы можете скачивать файлы