Статистика раздачи
Размер:  2,27 GB   |    Зарегистрирован:  1 месяц 18 дней   |    Скачан:  0 раз

Полного источника не было: Никогда

 
   
 
 

Domino ®

Пол:
Не указан
Стаж:
10 месяцев 11 дней
Сообщений:
632

Служить Франции будь готов!
Au service de la France- Год выпуска: 2015
Страна: Франция
Жанр: комедия
Продолжительность: 00:24:00Перевод: Субтитры (русский перевод К.Семенюк, ECLAIR)Режиссёр: Александр Куртес / Alexandre Courtès
В ролях: Хьюго Бекер / Hugo Becker (André Merlaux), Вильфред Бенаиш / Wilfred Benaïche (Le Colonel Maurice Mercaillon), Кристоф Курочкин / Christophe Kourotchkine (George Préjean dit 'Moïse'), Карим Барра / Karim Barras (Jacky Jacquard), Брюно Павьо / Bruno Paviot (Roger Moulinier), Матильда Варнье / Mathilde Warnier (Sophie Mercaillon)
Описание: 1960-й год. Французская разведка вербует 23-летнего Андре Мерло - весьма неглупого и интеллигентного красавца, хоть и несколько впечатлительного. Парню предстоит многому научиться, чтобы служить Франции и защищать ее интересы. Необходимую подготовку к выполнению деликатных - а иногда и очень необычных - миссий ему обеспечат трое сотрудников разведки, а Мерло в процессе столкнется с дипломатическими инцидентами и изучит тонкости политики.
Доп. информация: Hot Bird (13.0°E) TV5MONDE Europe DVB-S
Награда: приз художнику-постановщику Festival de la fiction TV de La Rochelle 2015.
Качество: DVB
Формат: MKV
Видео: MPEG Video 2, 720x576@1024x576 (16:9), 25 fps, ~3058 kbps avg, 0.295 bit/pixel
Аудио: MPEG Audio 2, 2 ch, 48 kHz, 192 kbps - французский
Субтитры: русские, немецкие, нидерландские, румынские, испанские - prerendered (IDX+SUB); английские, французские - softsub (SRT)
Реклама: отсутствует

Список серий

Сезон 1, Эпизод 01: Вербовка / Le Tsét (2014)
Сезон 1, Эпизод 02: Есть немецкий язык и есть германский / Il y a Allemand et Allemand (2014)
Сезон 1, Эпизод 03: Немного солнца / Un peu de soleil (2014)
Сезон 1, Эпизод 04: Алжир это Франция / L'Algérie, c'est la France (2014)

MediaInfo

General
Unique ID : 127179582694606405575686447710729093757 (0x5FADE58BAE7AF6EE2FA13B380D9F427D)
Complete name : [apreder]Au_service_de_la_France_s.1_ep.01(2014)DVB.mkv
Format : Matroska
Format version : Version 2
File size : 579 MiB
Duration : 24 min 24 s
Overall bit rate mode : Variable
Overall bit rate : 3 316 kb/s
Movie name : Au service de la France
Released date : 2015-10-28
Encoded date : UTC 2018-10-29 17:01:30
Writing application : mkvmerge v28.1.0 ('Morning Child') 64-bit
Writing library : libebml v1.3.6 + libmatroska v1.4.9
Cover : Yes
Attachments : cover.jpg / small_cover.jpg
ACTOR : Hugo Becker, Wilfred Benaпche, Christophe Kourotchkine
DIRECTOR : Alexandre Courtes
GENRE : Comedy
IMDB : tt5126462
KEYWORDS : rutracker.org
LAW_RATING : 16+
SUMMARY : s.1, ep.01 Le Tsйt
Video
ID : 1
Format : MPEG Video
Format version : Version 2
Format profile : Main@Main
Format settings : CustomMatrix / BVOP
Format settings, BVOP : Yes
Format settings, Matrix : Custom
Format settings, GOP : M=4, N=12
Format settings, picture structure : Frame
Codec ID : V_MPEG2
Codec ID/Info : MPEG 1 or 2 Video
Duration : 24 min 24 s
Bit rate mode : Variable
Bit rate : 3 058 kb/s
Width : 720 pixels
Height : 576 pixels
Display aspect ratio : 16:9
Frame rate mode : Constant
Frame rate : 25.000 FPS
Standard : PAL
Color space : YUV
Chroma subsampling : 4:2:0
Bit depth : 8 bits
Scan type : Interlaced
Scan order : Top Field First
Compression mode : Lossy
Bits/(Pixel*Frame) : 0.295
Time code of first frame : 00:00:00:00
Time code source : Group of pictures header
GOP, Open/Closed : Open
GOP, Open/Closed of first frame : Closed
Stream size : 534 MiB (92%)
Default : Yes
Forced : No
Audio
ID : 2
Format : MPEG Audio
Format version : Version 1
Format profile : Layer 2
Format settings : Joint stereo / Intensity Stereo + MS Stereo
Codec ID : A_MPEG/L2
Codec ID/Hint : MP2
Duration : 24 min 24 s
Bit rate mode : Constant
Bit rate : 192 kb/s
Channel(s) : 2 channels
Sampling rate : 48.0 kHz
Compression mode : Lossy
Stream size : 33.5 MiB (6%)
Language : French
Default : Yes
Forced : No
Text #1
ID : 3
Format : VobSub
Codec ID : S_VOBSUB
Codec ID/Info : Picture based subtitle format used on DVDs
Language : Russian
Default : No
Forced : No
Text #2
ID : 4
Format : UTF-8
Codec ID : S_TEXT/UTF8
Codec ID/Info : UTF-8 Plain Text
Language : English
Default : No
Forced : No
Text #3
ID : 5
Format : UTF-8
Codec ID : S_TEXT/UTF8
Codec ID/Info : UTF-8 Plain Text
Language : French
Default : No
Forced : No
Text #4
ID : 6
Format : VobSub
Codec ID : S_VOBSUB
Codec ID/Info : Picture based subtitle format used on DVDs
Language : German
Default : No
Forced : No
Text #5
ID : 7
Format : VobSub
Codec ID : S_VOBSUB
Codec ID/Info : Picture based subtitle format used on DVDs
Language : Dutch
Default : No
Forced : No
Text #6
ID : 8
Format : VobSub
Codec ID : S_VOBSUB
Codec ID/Info : Picture based subtitle format used on DVDs
Language : Romanian
Default : No
Forced : No
Text #7
ID : 9
Format : VobSub
Codec ID : S_VOBSUB
Codec ID/Info : Picture based subtitle format used on DVDs
Language : Spanish
Default : No
Forced : No

Скриншоты


Резервные скриншоты


-

Внимание! Раздача ведётся путём добавления новых выпусков

Внимание! Раздача ведётся путём добавления новых выпусков; при каждом добавлении создаётся новый торрент. Чтобы начать докачку нового выпуска, пользователям необходимо сделать следующее:
(1) остановить скачивание,
(2) удалить старый торрент у себя из клиента (старые серии удалять не надо),
(3) скачать новый торрент и запустить его у себя в клиенте вместо старого, при этом указать клиенту путь в старую папку куда и должно происходить скачивание новых выпусков.
Ваш клиент при этом должен произвести хеширование (проверку) старой папки (если не производит сам - помогите ему сделать это). В результате он будет докачивать только те выпуски, которых у Вас ещё нет. Старые выпуски при этом не удаляются, а продолжают раздаваться!
Eсли Вы уже удалили старые выпуски, то предотвратить их повторную закачку можно, сняв галочки в соответствующих местах при запуске нового торрента. По возможности, желательно не удалять старые выпуски как можно дольше, чтобы релизёр не только продолжал раздавать старые выпуски, но и смог сконцентрироваться на новых.
- [4'370]
[torrents24.ru].t60597.torrent 
Торрент: Зарегистрирован [ 2018-11-01 15:50 ] · B6CC85BC0339F6332C59E09E35440DE349FFF2BB

Скачать .torrent

Скачать

4 KB

Статус: проверено
Скачан: 0 раз
Размер: 2,27 GB

Профиль [ЛС]
Показать сообщения:    

Текущее время: 19-Дек 18:52

Часовой пояс: UTC + 3



Вы не можете начинать темы
Вы не можете отвечать на сообщения
Вы не можете редактировать свои сообщения
Вы не можете удалять свои сообщения
Вы не можете голосовать в опросах
Вы не можете прикреплять файлы к сообщениям
Вы можете скачивать файлы