Статистика раздачи
Размер:  1,61 GB   |    Зарегистрирован:  17 дней   |    Скачан:  0 раз

Полного источника не было: Никогда

 
   
 
 

Охотник за головами ®

Пол:
Не указан
Стаж:
9 месяцев 5 дней
Сообщений:
1051

V/A - Top 40 Met De Benen Op Tafel (С ногами на столе) - 192 TV
Страна: Нидерланды
Жанр: Pop, Rock
Канал:
Продолжительность: 02:04:03
Год выпуска: 21.10.2018
Описание: Gezellig even tot rust komen met de beste hits van 192 TV. Придите и расслабьтесь с лучшими хитами от 192 TV.
Источник: собственный рип
Качество: SATRip
Контейнер: *.ts
Видео кодек: H.264
Аудио кодек: MP2
Видео: AVC, 720х576 (16/9), 25,000 fps, 1 599 kb/s
Аудио: MPEG, 160 Kbps, 48 KHz, 2.0 channels
Запись видео:
Программа корректировки видео: Cypheros TS-Doctor ver. 1.2.22
Подготовка треклиста: NoMadU

Треклист:

01. George Harrison - This Song 1976
02. Jimmy Cliff - Sunshine In The Music 1984
03. Elvis Presley - Hound Dog 1956
04. Extreme - More Than Words 1991
05. Mud - Dyna-mite 1974
06. Dave Dee, Dozy, Beaky, Mick & Tich - Snake In The Grass 1969
07. Wham! - Freedom 1984
08. Buffy Sainte-Marie - Universal Soldier 1969
09. Roger Whittaker - Sunrise, Sunset 1970
10. Herman's Hermits - Sunshine Girl 1968
11. Gene Pitney - Twenty-Four Hours From Tulsa 1964
12. Mary Hopkin - Knock, Knock Who's There? 1970
13. Ekseption - Air 1969
14. Lana Del Rey - Summertime Sadness 2012
15. George Michael - Careless Whisper 1984
16. BZN - Mon Amour 1976
17. The Righteous Brothers - Unchained Melody 1965
18. Santana - Europa (Earth's Cry Heaven's Smile) 1976
19. Emmylou Harris - C'est La Vie (You Never Can Tell) 1977
20. Feargal Sharkey - A Good Heart 1985
21. Roy Orbison - Goodnight 1965
22. Madonna - This Used To Be My Playground 1992
23. Manfred Mann's Earth Band - Davy's On The Road Again 1978
24. The Ronettes - Be My Baby 1963
25. Jan Hammer - Crockett's Theme 1987
26. The Animals - Bring It On Home To Me 1965
27. Roy Wood - Dear Elaine 1973
28. Petula Clark - My Love 1966
29. Smokey Robinson & The Miracles - The Tracks Of My Tears 1965
30. Status Quo - Down Down 1975
31. Manfred Mann - Up The Junction 1968
32. Robbie Williams - Feel 2002
33. Bruce Springsteen - The River 1981
34. ABBA - I Do, I Do, I Do, I Do, I Do 1975
35. Skeeter Davis - The End Of The World 1963
36. The Bee Gees - My World 1972

MediaInfo

Код:General
ID : 3202 (0xC82)
Complete name : D:\Mega\Top 40 Met De Benen Op Tafel - 192 TV 21.10.2018.ts
Format : MPEG-TS
File size : 1.61 GiB
Duration : 2 h 4 min
Overall bit rate mode : Variable
Overall bit rate : 1 853 kb/s
Video
ID : 513 (0x201)
Menu ID : 6015 (0x177F)
Format : AVC
Format/Info : Advanced Video Codec
Format profile : High@L3
Format settings, CABAC : Yes
Format settings, RefFrames : 4 frames
Codec ID : 27
Duration : 2 h 4 min
Bit rate : 1 599 kb/s
Width : 720 pixels
Height : 576 pixels
Display aspect ratio : 16:9
Frame rate : 25.000 FPS
Standard : Component
Color space : YUV
Chroma subsampling : 4:2:0
Bit depth : 8 bits
Scan type : Interlaced
Scan type, store method : Separated fields
Scan order : Top Field First
Bits/(Pixel*Frame) : 0.154
Stream size : 1.39 GiB (86%)
Encryption : TPS-Crypt or Viaccess
Color range : Limited
Color primaries : BT.601 PAL
Transfer characteristics : BT.470 System B, BT.470 System G
Matrix coefficients : BT.601
Audio
ID : 82 (0x52)
Menu ID : 6015 (0x177F)
Format : MPEG Audio
Format version : Version 1
Format profile : Layer 2
Codec ID : 4
Duration : 2 h 4 min
Bit rate mode : Constant
Bit rate : 160 kb/s
Channel(s) : 2 channels
Sampling rate : 48.0 kHz
Compression mode : Lossy
Delay relative to video : 120 ms
Stream size : 142 MiB (9%)
Language : Dutch
Encryption : TPS-Crypt or Viaccess

Скриншоты

[torrents24.ru].t59848.torrent 
Торрент: Зарегистрирован [ 2018-10-26 16:55 ] · EAD078128C95C782B9741F2D2ADF25B17F771DD8

Скачать .torrent

Скачать

17 KB

Статус: проверено
Скачан: 0 раз
Размер: 1,61 GB

Профиль [ЛС]
Показать сообщения:    

Текущее время: 13-Ноя 00:56

Часовой пояс: UTC + 3



Вы не можете начинать темы
Вы не можете отвечать на сообщения
Вы не можете редактировать свои сообщения
Вы не можете удалять свои сообщения
Вы не можете голосовать в опросах
Вы не можете прикреплять файлы к сообщениям
Вы можете скачивать файлы