Статистика раздачи
Размер:  677 MB   |    Зарегистрирован:  1 месяц 21 день   |    Скачан:  0 раз

Полного источника не было: Никогда

 
   
 
 

Bleach ®

Пол:
Не указан
Стаж:
10 месяцев 12 дней
Сообщений:
992

Леонид Агутин
Время последних романтиков
-- Жанр: Pop
Страна-производитель диска: Россия
Год издания диска: 2012
Издатель (лейбл): Квадро Диск
Номер по каталогу: KDV12-656
Страна: Россия
Продолжительность: 00:16:35
Разбивка на главы по трекам: есть
Качество: DVD5
Формат: DVD Video
Видео кодек: MPEG2
Аудио кодек: MPEG1
Видео: MPEG2 Video 720x576 (4:3) 25fps 9000kbps [Video]
Аудио: MPEG Audio 48000Hz stereo 224kbps [Mpeg-1]

--Содержание:
01. Как не думать о тебе
02. Всё ещё вернётся
03. Havana
04. Не позволь мне погибнуть

MediaInfo

General
Complete name : M:\VIDEO\Леонид Агутин - Время последних романтиков (бонусный DVD) 2012\VIDEO_TS\VTS_01_1.VOB
Format : MPEG-PS
File size : 674 MiB
Duration : 16mn 35s
Overall bit rate mode : Variable
Overall bit rate : 5 681 Kbps
Video
ID : 224 (0xE0)
Format : MPEG Video
Format version : Version 2
Format profile : Main@Main
Format settings, BVOP : Yes
Format settings, Matrix : Default
Format settings, GOP : M=3, N=12
Duration : 16mn 35s
Bit rate mode : Variable
Bit rate : 5 344 Kbps
Maximum bit rate : 9 000 Kbps
Width : 720 pixels
Height : 576 pixels
Display aspect ratio : 4:3
Frame rate : 25.000 fps
Standard : PAL
Color space : YUV
Chroma subsampling : 4:2:0
Bit depth : 8 bits
Scan type : Interlaced
Scan order : Bottom Field First
Compression mode : Lossy
Bits/(Pixel*Frame) : 0.515
Stream size : 634 MiB (94%)
Audio
ID : 192 (0xC0)
Format : MPEG Audio
Format version : Version 1
Format profile : Layer 2
Duration : 16mn 35s
Bit rate mode : Constant
Bit rate : 224 Kbps
Channel(s) : 2 channels
Sampling rate : 48.0 KHz
Compression mode : Lossy
Delay relative to video : -80ms
Stream size : 26.6 MiB (4%)
Menu

Скриншот меню

Скриншоты

--
[torrents24.ru].t59813.torrent 
Торрент: Зарегистрирован [ 2018-10-26 16:55 ] · C0FFA775398D0D40A3E5D9AB66DC81C3CE4DA44A

Скачать .torrent

Скачать

14 KB

Статус: проверено
Скачан: 0 раз
Размер: 677 MB

Профиль [ЛС]
Показать сообщения:    

Текущее время: 16-Дек 18:40

Часовой пояс: UTC + 3



Вы не можете начинать темы
Вы не можете отвечать на сообщения
Вы не можете редактировать свои сообщения
Вы не можете удалять свои сообщения
Вы не можете голосовать в опросах
Вы не можете прикреплять файлы к сообщениям
Вы можете скачивать файлы