Статистика раздачи
Размер:  7,9 GB   |    Зарегистрирован:  1 месяц 27 дней   |    Скачан:  0 раз

Полного источника не было: Никогда

 
   
 
 

omniva ®

Пол:
Не указан
Стаж:
10 месяцев 11 дней
Сообщений:
335

Паровозик Тишка
Страна: Россия
Жанр: Мультсериал
Продолжительность серии: ~00.05.00
Год выпуска: 2012-2015
Перевод: Не требуется
Русские субтитры: нет
Режиссёр: Денис Червяцов, Святослав Ушаков, Алексей Котёночкин
Роли озвучивали: Даниил Эльдаров, Армен Джигарханян, Константин Хабенской
Описание: В далеком красочном городе обитают самые настоящие живые паровозы. Кроме взрослых составов, ежедневно уезжающих на работу, есть и самые маленькие, среди которых наши главные герои — паровозик Тишка и его друзья. С ними вечно случается что-то забавное, вместе узнают, стоит ли верить в чудеса, что важнее, победа или дружба и нужно ли бояться пробовать что-то новое.
Качество: WEBRip
Формат: AVI
Видео: XVID; 1815 Кбит/сек; 720х400 (16:9); 25,000 кадров/сек
Аудио: AC-3; 192 Кбит/сек; 48,0 КГц; 2 канала
Субтитры: Нет

Список серий

Сезон 1:
01. Чего хотят женщины?
02. Лучший помощник
03. Любит, не любит
04. Подвиг неизвестного героя
05. Загадочная коробка
06. Ловушка для индейцев
07. Музыкальный талант
08. Розовый город
09. Папины документы
10. Ловись, рыбка
11. Снежная крепость
12. Уличные художества
13. Невезучая астрономия
14. Робинзон
15. Только ради дружбы
16. Компас
17. Знание - сила
18. Засуха
19. Фестиваль фонариков
20. НЛО
21. ТелеТишкаp
22. Дикая дрезина
23. День без родителей
24. Похищение
25. Клад
26. Находчивость Тишки
27. Женский день (8 марта)
28. Тишкины правила
29. Жизнь в розовом цвете
30. Сон
31. Дерево желаний
32. Лучший подарок
33. Чего боится страх
34. Поэзия
35. Кто быстрее
36. Василич не хочет дружить
37. Букет для Эльки
38. Клякса
39. Невезучий день
40. Секреты от друзей
41. Разрушители мифов
42. Команда
43. Самый лучший цирк
44. Кино
45. Невезуха
Сезон 2:
01. Хороший пример
02. Модернизация
03. Бесстрашный герой
04. Магнит
05. Паром
06. С новым годом!
07. Подводный мир
08. Путешествие на луну
09. Башмаки для чемпионов
10. Секрет красоты
11. Пираты южных морей
12. Новый вратарь
13. Георгий 2000
14. Новая высота
15. Жара
16. Красота - страшная сила
17. Хороший пример
18. Техника опасности
19. Ночь с привидениями
20. Три мушкетер
21. Вести Паровозовска
22. Полная луна
23. Изобретение
24. По правилам
25. Глупые приметы
26. Пять минут
27. Смелый поступок
28. Лучшая Ёлка
29. Время с пользой
30. Путешествие на Марс
31. Волшебное дерево
32. Самый мощный паровозик
33. Сказка
34. Комета
35. Зимний день
36. Полигон
37. Настоящий талант
38. Летающие паровозики
39. Первобытные времена
40. Ночь в музее
41. В поисках снежной дрезины
42. Дерево
43. Сказка о трехглавом драконе
44. Гений
45. Самые точные часы
46. Главная рол
47. Мечты
48. Кто потерял шарик
Сезон 3:
01 Кубок Чемпиона
02. Стихийное бедствие
03. Остров Сокровищ
04. Игра в молчанку
05. Тринадцатое число
06. Кто украл фару?
07. Плохие шутки
08. Подарок для мамы
09. Подземный город
10. С Днем Рождения!
11. Помощник

Подробные технические данные

Общее
Полное имя : D:\закачки\Тишка [rutracker.org]\001 Чего хотят женщины.avi
Формат : AVI
Формат/Информация : Audio Video Interleave
Размер файла : 77,8 Мбайт
Продолжительность : 5 м. 23 с.
Общий поток : 2017 Кбит/сек
Программа кодирования : VirtualDubMod 1.5.10.2 (build 2540/release)
Библиотека кодирования : VirtualDubMod build 2540/release
Видео
Идентификатор : 0
Формат : MPEG-4 Visual
Профиль формата : Advanced Simple@L5
Настройки формата : BVOP1
Параметр BVOP формата : 1
Параметр QPel формата : Нет
Параметр GMC формата : Без точки перехода
Параметр матрицы формата : Default (H.263)
Идентификатор кодека : XVID
Идентификатор кодека/Подсказка : XviD
Продолжительность : 5 м. 23 с.
Битрейт : 1815 Кбит/сек
Ширина : 720 пикселей
Высота : 400 пикселей
Соотношение сторон : 16:9
Частота кадров : 25,000 кадров/сек
Цветовое пространство : YUV
Субдискретизация насыщенности : 4:2:0
Битовая глубина : 8 бит
Тип развёртки : Прогрессивная
Метод сжатия : С потерями
Бит/(Пиксели*Кадры) : 0.252
Размер потока : 70,0 Мбайт (90%)
Библиотека кодирования : XviD 1.2.1 (UTC 2008-12-04)
Аудио
Идентификатор : 1
Формат : AC-3
Формат/Информация : Audio Coding 3
Идентификатор кодека : 2000
Продолжительность : 5 м. 23 с.
Вид битрейта : Постоянный
Битрейт : 192 Кбит/сек
Каналы : 2 канала
Расположение каналов : Front: L R
Частота : 48,0 КГц
Частота кадров : 31,250 кадров/сек (1536 SPF)
Битовая глубина : 16 бит
Метод сжатия : С потерями
Размер потока : 7,40 Мбайт (10%)
Выравнивание : Соединение по промежуткам
Продолжительность промежутка : 40 мс. (1,00 видеокадр)
Время предзагрузки промежутка : 512 мс.
ServiceKind/String : Complete Main

Скриншоты

сэмплвсе раздачи
[torrents24.ru].t59460.torrent 
Торрент: Зарегистрирован [ 2018-10-23 16:55 ] · 4A82DC62F57A491175800C383686F850F1B429D3

Скачать .torrent

Скачать

47 KB

Статус: проверено
Скачан: 0 раз
Размер: 7,9 GB

Профиль [ЛС]
Показать сообщения:    

Текущее время: 19-Дек 19:37

Часовой пояс: UTC + 3



Вы не можете начинать темы
Вы не можете отвечать на сообщения
Вы не можете редактировать свои сообщения
Вы не можете удалять свои сообщения
Вы не можете голосовать в опросах
Вы не можете прикреплять файлы к сообщениям
Вы можете скачивать файлы