Статистика раздачи
Размер:  6,36 GB   |    Зарегистрирован:  21 день   |    Скачан:  0 раз

Полного источника не было: Никогда

 
   
 
 

Zlo ®

Пол:
Не указан
Стаж:
9 месяцев 9 дней
Сообщений:
633

Бумажки- Страна: Россия
Студия: Паровоз
Жанр: детский, развивающий
Продолжительность: 00.05.30
Год выпуска: 2015-2016
Режиссер: Алексей Миронов, Артур Толстобров, Кирилл Кравченко, ...
В ролях: Андрей Рожков
Возраст: 0+
Сюжет фильма:
Анимационный сериал рассказывает о приключениях бумажных героев — лося по имени Аристотель и дятла по имени Тюк-тюк — в Бумажной стране, где все сделано только из бумаги, картона и канцелярских атрибутов (скотч, скрепки и т. д.). Каждая серия является отдельным увлекательным приключением, которое разворачивается вокруг новой поделки из бумаги. Приключение перемежается вставками «для умелых рук» (по одной на серию), из которых зрители узнают как из бумаги и картона при помощи ножниц и клея можно самому сделать бумажную поделку или нового персонажа. Таким образом, зритель вовлекается в своеобразную игру, предполагающую творчество и развитие многих полезных навыков, отвлекающих детей от увлечения компьютером.-Качество видео: WEBRip 1080p
Формат файла: mp4
Видео: кодек: AVC, размер кадра: 1920x1080 (16:9), битрейт: ~2000 кб/с, частота кадров: ~25 кадра/сек
Аудио: язык: русский (оригинал), частота дискретизации: 44100 Гц, аудиокодек: AAC, 2 ch, битрейт аудио: 126 кб/с-

Список серий

001 - Заяц или кот
002 - С днем рождения, птенчики!
003 - Игрушка для Зюйд-веста
004 - Лучший изобретатель
005 - На высоте
006 - Букет для королевы
007 - Под крышей дома
008 - Королева хочет домой
009 - Пикник в обеденное время
010 - Пришелец с Фольгундии
011 - Полезное насекомое
012 - Снова праздник!
013 - Подвиг капитана Тюка
014 - Новый сосед
015 - Живые цветы
016 - Знакомый незнакомец
017 - За бумажным морем
018 - Приходите на концерт
019 - Розовая клумба
020 - Звездная ночь
021 - А был ли птенчик
022 - Крокодиловы слезы
023 - Удачный кадр
024 - Сокровища бумажной пещеры
025 - Серенький волчок
026 - Перевернутая история
027 - Дом с привидениями
028 - Бумажное солнце
029 - Бумажный концерт
030 - Загадочное письмо
031 - Птица удачи
032 - Таинственный остров
033 - Радужное озеро
034 - Зимой и летом
035 - Куриная память
036 - По ту сторону земли
037 - Откуда дует ветер
038 - На всякий бумажный случай
039 - Путешествие в Бумпариж
040 - Грибы или ботинки
041 - Как стать звездой
042 - Бумажные желания
043 - На вкус и цвет
044 - Невидимка
045 - Землетрясение
046 - Рекордсмены
047 - Гостелюбивое растение
048 - Вечеринка удалась
049 - Бумажные слезы
050 - О чем молчит рыбка
051 - Чудеса дрессировки
052 - Тише едешь - дальше будешь
053 - Лютики-цветочки
054 - Няньки
055 - Бумажная приманка
056 - Полная луна
057 - Робот
058 - Новогодняя история
059 - Весёлый учитель
060 - Небумажное настроение
061 - Запасы на зиму
062 - Блестящая операция
063 - Будь здоров, дятел!
064 - Зимний цвет
065 - Бумажный детектив
066 - Когда не хватает лап
067 - Снег идёт
068 - Сюрприз
069 - Маленький океан
070 - Ночные наблюдения
071 - Рыцарь Тюк
072 - Бумажная бодрость
073 - Средство от бессоницы
074 - Красный, желтый, зелёный
075 - Грушевый компот
076 - Путешествие в Бумарктику
077 - SOS!
078 - 1000 и 1 икринка

MediaInfo

Общее
Полное имя : \Бумажки\Бумажки 010 - Пришелец с Фольгундии.mp4
Формат : MPEG-4
Профиль формата : Base Media
Идентификатор кодека : isom (isom/mp42)
Размер файла : 86,5 Мбайт
Продолжительность : 5 м. 30 с.
Общий поток : 2198 Кбит/сек
Программа кодирования : Lavf56.40.101
Видео
Идентификатор : 1
Формат : AVC
Формат/Информация : Advanced Video Codec
Профиль формата : High@L4
Настройки формата : CABAC / 3 Ref Frames
Параметр CABAC формата : Да
Параметр RefFrames формата : 3 кадра
Идентификатор кодека : avc1
Идентификатор кодека/Информация : Advanced Video Coding
Продолжительность : 5 м. 30 с.
Продолжительность оригинала : 5 м. 29 с.
Source_Duration_FirstFrame : -40 мс.
Битрейт : 2067 Кбит/сек
Ширина : 1920 пикселей
Высота : 1080 пикселей
Соотношение сторон : 16:9
Режим частоты кадров : Переменный
Частота кадров : 25,000 кадров/сек
Минимальная частота кадров : 25,000 кадров/сек
Максимальная частота кадров : 25,014 кадров/сек
Цветовое пространство : YUV
Субдискретизация насыщенности : 4:2:0
Битовая глубина : 8 бит
Тип развёртки : Прогрессивная
Бит/(Пиксели*Кадры) : 0.040
Размер потока : 81,3 Мбайт (94%)
Размер потока оригинала : 81,3 Мбайт (94%)
Язык : English
Цветовой диапазон : Limited
Основные цвета : BT.709
Характеристики трансфера : BT.709
Коэффициенты матрицы : BT.709
mdhd_Duration : 330000
Аудио
Идентификатор : 2
Формат : AAC
Формат/Информация : Advanced Audio Codec
Профиль формата : LC
Идентификатор кодека : mp4a-40-2
Продолжительность : 5 м. 30 с.
Продолжительность оригинала : 5 м. 30 с.
Вид битрейта : Постоянный
Битрейт : 126 Кбит/сек
Каналы : 2 канала
Расположение каналов : Front: L R
Частота : 44,1 КГц
Частота кадров : 43,066 кадра/сек (1024 SPF)
Метод сжатия : С потерями
Размер потока : 4,94 Мбайт (6%)
Размер потока оригинала : 4,94 Мбайт (6%)
Язык : English
mdhd_Duration : 330025

Скриншоты

Источник

Мульт (youtube)
Обрезал рекламу.
Из офиц. приложения скачал выкройки бумажных моделей.
[torrents24.ru].t59383.torrent 
Торрент: Зарегистрирован [ 2018-10-22 15:35 ] · 4BE6BB0106667D8B3D2AE8FAB69F2378872009EF

Скачать .torrent

Скачать

28 KB

Статус: проверено
Скачан: 0 раз
Размер: 6,36 GB

Профиль [ЛС]
Показать сообщения:    

Текущее время: 13-Ноя 00:56

Часовой пояс: UTC + 3



Вы не можете начинать темы
Вы не можете отвечать на сообщения
Вы не можете редактировать свои сообщения
Вы не можете удалять свои сообщения
Вы не можете голосовать в опросах
Вы не можете прикреплять файлы к сообщениям
Вы можете скачивать файлы