Статистика раздачи
Размер:  1,28 GB   |    Зарегистрирован:  2 месяца 5 дней   |    Скачан:  0 раз

Полного источника не было: Никогда

 
   
 
 

ingiz ®

Пол:
Не указан
Стаж:
10 месяцев 8 дней
Сообщений:
2004

Кости / Ossos / Bones
Страна: Португалия, Дания, Франция
Жанр: Драма
Год выпуска: 1997
Продолжительность: 01:37:00
Перевод: Одноголосый закадровый Олег Воротилин по субтитрам bheekkoo
Субтитры: русские
Оригинальная аудиодорожка: португальский (лежит отдельным файлом в раздаче)
Режиссер: Педро Кошта / Pedro Costa
В ролях: Ванда Дуарте, Нуно Ваз, Мария Липкина, Изабел Рут, Иниш ди Медейруш, Берта Сюзанна Тейшейра, Зита Дуарте, Беатриз Лопез, Рикардо Таварес
Описание: История из жизни обитателей трущоб Лиссабона. У молодой девушки Тины рождается ребенок. Ни она, ни его отец не хотели его. В условиях крайней бедности они едва находят силы чтобы жить.
Сюжет фильма незамысловат и служит лишь формой для визуального повествования, которое как ни в каком другом фильме неравноценно словам. Герои говорят очень немного - эту историю рассказывает камера и окружающие звуки, добиваясь предельной выразительности человеческого состояния за гранью терпимого, когда отчаяние испытывает человека на прочность.
Доп. информация: Фильм вошел в 10-ку лучших фильмов 1998 года по мнению французского киноведческого журнала Cahiers du Cinema.
Оператор фильма Emmanuel Machuel получил приз за операторскую работу на Венецианском кинофестивале 1997 года, он работал с такими видными кинематографистами как Мишель Розье, Мануэлем де Оливейра, Морис Пиала, Робер Брессон и др. Он же работал над другим фильмом Педро Кошты "Дом Лавы" (1994 год).
Награды: Венецианский кинофестиваль, 1997 год
Победитель: Золотые Озеллы за лучшую работу оператора
Номинация: Золотой лев
Сэмпл: https://yadi.sk/i/oH0Jh60pgQ1O-w
Качество видео: DVDRip
Формат видео: AVI
Видео: XviD, 720х432, 1484 Кбит/сек, 23,976 кадр/сек.
Аудио 1: AC3, 192 Кбит/сек, 2 канала (стерео), 48,0 КГц, русский
Аудио 2: AC3, 192 Кбит/сек, 2 канала (стерео), 48,0 КГц, португальский
Формат субтитров: softsub (SRT)

MediaInfo

Общее
Полное имя : E:\Видео\Релизы\Кости\Кости (Ossos).avi
Формат : AVI
Формат/Информация : Audio Video Interleave
Размер файла : 1,15 Гбайт
Продолжительность : 1 ч. 37 м.
Общий поток : 1685 Кбит/сек
Библиотека кодирования : VirtualDub build 35491/release
Видео
Идентификатор : 0
Формат : MPEG-4 Visual
Профиль формата : Advanced Simple@L5
Параметр BVOP формата : Нет
Параметр QPel формата : Нет
Параметр GMC формата : Без точки перехода
Параметр матрицы формата : Выборочная
Идентификатор кодека : XVID
Идентификатор кодека/Подсказка : XviD
Продолжительность : 1 ч. 37 м.
Битрейт : 1484 Кбит/сек
Ширина : 720 пикселей
Высота : 432 пикселя
Соотношение сторон : 5:3
Частота кадров : 23,976 (24000/1001) кадра/сек
Цветовое пространство : YUV
Субдискретизация насыщенности : 4:2:0
Битовая глубина : 8 бит
Тип развёртки : Прогрессивная
Метод сжатия : С потерями
Бит/(Пиксели*Кадры) : 0.199
Размер потока : 1,02 Гбайт (88%)
Библиотека кодирования : XviD 1.2.1 (UTC 2008-12-04)
Аудио
Идентификатор : 1
Формат : AC-3
Формат/Информация : Audio Coding 3
Расширение режима : CM (complete main)
Параметр Endianness формата : Big
Идентификатор кодека : 2000
Продолжительность : 1 ч. 37 м.
Вид битрейта : Постоянный
Битрейт : 192 Кбит/сек
Каналы : 2 канала
Расположение каналов : Front: L R
Частота : 48,0 КГц
Частота кадров : 31,250 кадров/сек (1536 spf)
Битовая глубина : 16 бит
Метод сжатия : С потерями
Размер потока : 135 Мбайт (11%)
Выравнивание : Соединение по промежуткам
Продолжительность промежутка : 42 мс. (1,00 видеокадр)
Время предзагрузки промежутка : 512 мс.

Скриншот c названием фильма

Скриншоты





Исходник взят из этой раздачи, созданной Gersuzu, за что ему спасибо :
[torrents24.ru].t57937.torrent 
Торрент: Зарегистрирован [ 2018-10-11 15:50 ] · 80A2EB47BAEC154CD2487615BFB9913CCFF5D889

Скачать .torrent

Скачать

14 KB

Статус: проверено
Скачан: 0 раз
Размер: 1,28 GB

Профиль [ЛС]
Показать сообщения:    

Текущее время: 17-Дек 12:31

Часовой пояс: UTC + 3



Вы не можете начинать темы
Вы не можете отвечать на сообщения
Вы не можете редактировать свои сообщения
Вы не можете удалять свои сообщения
Вы не можете голосовать в опросах
Вы не можете прикреплять файлы к сообщениям
Вы можете скачивать файлы