Статистика раздачи
Размер:  4,34 GB   |    Зарегистрирован:  2 месяца 5 дней   |    Скачан:  0 раз

Полного источника не было: Никогда

 
   
 
 

Акробат ®

Пол:
Не указан
Стаж:
10 месяцев 7 дней
Сообщений:
191

Приключения Пиноккио / The Adventures of Pinocchio- Страна: Япония, США
Жанр: мультфильм, сказка, приключения
Год выпуска: 1984
Продолжительность: 01:38:50-Перевод: Профессиональный (многоголосый закадровый) - Киностудия "Мосфильм" по заказу ВПТО "Видеофильм", 1988г.
Субтитры: нет-Режиссер: Джим Терри / Jim Terry, Ипеи Кури / Ippei Kuri- | Релиз: -Описание: Эта история о мастере Джепетто, который вырезал из дубовой ветки куклу, чтобы деревяшка стала настоящим мальчиком, который мог бы быть сыном для одинокого Джепетто. И вот, поздно ночью в дом к мастеру прилетает Фея. Ей жаль старого доброго Джепетто, и она осуществляет его мечту: кукла превращается в маленького мальчика. Мастер называет его Пиноккио и решает отправить в школу. Попав в город, Пиноккио сразу замечает красочное объявление о шоу марионеток. Это завораживает мальчика. А загадочный незнакомец Франко предлагает ему продать учебники для того, чтобы купить билет на шоу. Пиноккио соглашается, и хозяин марионеток радушно предлагает шустрому мальчику поучаствовать в спектакле. Но после шоу незнакомец не отпускает героя, а запирает вместе с остальными марионетками... Пиноккио не знает как выбраться из плена, он очень скучает по своему отцу Джепетто... Кто же поможет Пиноккио? Неужели он навсегда останется в плену у злого хозяина?-Доп. информация: Оцифровка видеокассеты "Госкино СССР" - xfiles.-Семпл: http://sendfile.su/1446754-Тип релиза: VHSRip
Контейнер: DVD-Video
Видео: PAL 720x576 (4:3) @ 768x576, 25.000 fps, MPEG-2 Video, ~5400 Kbps, 0.521 bits/pixel
Аудио: Русский, 48.0 KHz, PCM, 1 ch, 768 Kbps

DVDInfo

Title: The Adventures of Pinocchio 1984 VHSRip
Size: 4.34 Gb ( 4 550 990,00 KBytes ) - DVD-5
Enabled regions: 1, 2, 3, 4, 5, 6, 7, 8
VTS_01 :
Play Length: 01:38:50
Video: PAL 4:3 (720x576) VBR
Audio:
Russian (LinearPCM, 1 ch)

MediaInfo

General
Complete name : \The Adventures of Pinocchio 1984 VHSRip\VIDEO_TS\VTS_01_1.VOB
Format : MPEG-PS
File size : 1 024 MiB
Duration : 22 min 46 s
Overall bit rate mode : Variable
Overall bit rate : 6 286 kb/s
Video
ID : 224 (0xE0)
Format : MPEG Video
Format version : Version 2
Format profile : Main@Main
Format settings : CustomMatrix / BVOP
Format settings, BVOP : Yes
Format settings, Matrix : Custom
Format settings, GOP : Variable
Format settings, picture structure : Frame
Duration : 22 min 46 s
Bit rate mode : Variable
Bit rate : 5 400 kb/s
Width : 720 pixels
Height : 576 pixels
Display aspect ratio : 4:3
Frame rate : 25.000 FPS
Standard : PAL
Color space : YUV
Chroma subsampling : 4:2:0
Bit depth : 8 bits
Scan type : Interlaced
Scan order : Top Field First
Compression mode : Lossy
Bits/(Pixel*Frame) : 0.521
Time code of first frame : 00:00:00:00
Time code source : Group of pictures header
GOP, Open/Closed : Open
GOP, Open/Closed of first frame : Closed
Stream size : 879 MiB (86%)
Audio
ID : 189 (0xBD)-160 (0xA0)
Format : PCM
Format settings : Big / Signed
Muxing mode : DVD-Video
Duration : 22 min 46 s
Bit rate mode : Constant
Bit rate : 768 kb/s
Channel(s) : 1 channel
Channel layout : C
Sampling rate : 48.0 kHz
Bit depth : 16 bits
Stream size : 125 MiB (12%)
Menu
[torrents24.ru].t57914.torrent 
Торрент: Зарегистрирован [ 2018-10-11 15:50 ] · 61D7965F928FD784A7E181F5A75B2716ADA4CB3A

Скачать .torrent

Скачать

23 KB

Статус: проверено
Скачан: 0 раз
Размер: 4,34 GB

Профиль [ЛС]
Показать сообщения:    

Текущее время: 16-Дек 18:08

Часовой пояс: UTC + 3



Вы не можете начинать темы
Вы не можете отвечать на сообщения
Вы не можете редактировать свои сообщения
Вы не можете удалять свои сообщения
Вы не можете голосовать в опросах
Вы не можете прикреплять файлы к сообщениям
Вы можете скачивать файлы