Статистика раздачи
Размер:  1,6 GB   |    Зарегистрирован:  2 месяца 6 дней   |    Скачан:  1 раз

Полного источника не было: 27 дней

 
   
 
 

Monk ®

Пол:
Не указан
Стаж:
10 месяцев 8 дней
Сообщений:
681

Без тебя / Tum Bin...
«Love will find a way»
- Год выпуска: 2001
Страна: Индия
Жанр: мелодрама
Продолжительность: 02:32:08
Перевод: Профессиональный (двухголосый)
Режиссер: Анубхав Синха / Anubhav Sinha
В ролях: Прияншу Чаттерджи, Химаншу Малик, Сандали Синха, Ракеш Бапат, Викрам Гокхале, Раджеш Кхера, Навнит Нишан, Раджендра Гупта, Враджеш Хирджи, Крис Ипполито
Описание: Молодой предприниматель Шекхар по нелепой случайности становится виновником смерти своего коллеги Амара, приехавшего в Индию из Канады на несколько дней. Под гнётом собственной вины Шекхар отправляется в Канаду, чтобы хоть как-то помочь родственникам Амара. Здесь он знакомится с Прийей - невестой Амара. Шекхар влюбляется в Прийю, но сможет ли он рассказать ей правду о гибели жениха, да и полиция разыскивает его, как обвиняемого...
Доп. информация: В 2001 году фильм вошел в семерку самых кассовых фильмов года-IMDB | Кинопоиск-Качество: WEBRip-AVC | Sample
Формат: MKV
Видео: AVC, 1280x544 (2.35:1), 993 kbps, 25.000 fps
Аудио #1: AC-3, 48.0 KHz, 6 ch, 384 Kbps, CBR (Russian)
Аудио #2: AAC LC, 44.1 KHz, 2 ch (Hindi)

Скриншот c названием фильма

Запасной постер

Запасные обложки

---

MediaInfo

Общее
Уникальный идентификатор : 186532993346297345209361630963887595480 (0x8C54F29FC18412D39B4FCBD25D915FD8)
Полное имя : G:\Video\Без тебя. Tum Bin (720p)[2001].mkv
Формат : Matroska
Версия формата : Version 4
Размер файла : 1,60 Гбайт
Продолжительность : 2 ч. 32 м.
Общий поток : 1505 Кбит/сек
Название фильма : ~ jasinpapa ~
Дата кодирования : UTC 2018-10-06 17:58:30
Программа кодирования : mkvmerge v27.0.0 ('Metropolis') 64-bit
Библиотека кодирования : libebml v1.3.6 + libmatroska v1.4.9
Attachments : poster-of-tum-bin-201603-692166.jpg
Видео
Идентификатор : 1
Формат : AVC
Формат/Информация : Advanced Video Codec
Профиль формата : Main@L3.1
Настройки формата : CABAC / 3 Ref Frames
Параметр CABAC формата : Да
Параметр RefFrames формата : 3 кадра
Идентификатор кодека : V_MPEG4/ISO/AVC
Продолжительность : 2 ч. 32 м.
Битрейт : 993 Кбит/сек
Ширина : 1280 пикселей
Высота : 544 пикселя
Соотношение сторон : 2,35:1
Режим частоты кадров : Постоянный
Частота кадров : 25,000 кадров/сек
Цветовое пространство : YUV
Субдискретизация насыщенности : 4:2:0
Битовая глубина : 8 бит
Тип развёртки : Прогрессивная
Бит/(Пиксели*Кадры) : 0.057
Размер потока : 1,06 Гбайт (66%)
Default : Да
Forced : Нет
Цветовой диапазон : Limited
Основные цвета : BT.709
Характеристики трансфера : BT.709
Коэффициенты матрицы : BT.709
Аудио #1
Идентификатор : 2
Формат : AC-3
Формат/Информация : Audio Coding 3
Коммерческое название : Dolby Digital
Идентификатор кодека : A_AC3
Продолжительность : 2 ч. 32 м.
Вид битрейта : Постоянный
Битрейт : 384 Кбит/сек
Каналы : 6 каналов
Channel layout : L R C LFE Ls Rs
Частота : 48,0 КГц
Частота кадров : 31,250 кадров/сек (1536 SPF)
Битовая глубина : 16 бит
Метод сжатия : С потерями
Размер потока : 418 Мбайт (26%)
Язык : Russian
ServiceKind/String : Complete Main
Default : Да
Forced : Нет
Аудио #2
Идентификатор : 3
Формат : AAC LC
Формат/Информация : Advanced Audio Codec Low Complexity
Идентификатор кодека : A_AAC-2
Продолжительность : 2 ч. 32 м.
Битрейт : 126 Кбит/сек
Каналы : 2 канала
Channel layout : L R
Частота : 44,1 КГц
Частота кадров : 43,066 кадра/сек (1024 SPF)
Метод сжатия : С потерями
Размер потока : 137 Мбайт (8%)
Язык : Hindi
Default : Нет
Forced : Нет
[torrents24.ru].t57815.torrent 
Торрент: Зарегистрирован [ 2018-10-10 16:05 ] · 4ECB82D8347FD9D480A999B32D95FF5FFD05D99A

Скачать .torrent

Скачать

16 KB

Статус: проверено
Скачан: 1 раз
Размер: 1,6 GB

Профиль [ЛС]
Показать сообщения:    

Текущее время: 17-Дек 13:27

Часовой пояс: UTC + 3



Вы не можете начинать темы
Вы не можете отвечать на сообщения
Вы не можете редактировать свои сообщения
Вы не можете удалять свои сообщения
Вы не можете голосовать в опросах
Вы не можете прикреплять файлы к сообщениям
Вы можете скачивать файлы