Статистика раздачи
Размер:  5,99 GB   |    Зарегистрирован:  2 месяца 7 дней   |    Скачан:  0 раз

Полного источника не было: Никогда

 
   
 
 

Domino ®

Пол:
Не указан
Стаж:
10 месяцев 7 дней
Сообщений:
618

Вера / Vera- Год выпуска: 2018
Страна: Великобритания
Жанр: драма, криминал, детектив
Продолжительность: ~ 01:29:00
Перевод: Профессиональный (многоголосый закадровый) (AMS)-Режиссёр: Крис Боф, Ли Хавен Джонс, Дэвид Леон-В ролях: Бренда Блетин, Кенни Даути, Джон Моррисон, Райли Джонс, Кингсли Бен-Адир, Стив Эветс-Описание: «Вера» - детективный сериал, основанный на популярных литературных произведениях Энн Кливес. Что будет, если мисс Марпл скрестить с Шерлоком Холмсом: физику взять от бабушки, а мозги и характер - от дяденьки? А получится Вера Стенхоуп - старший инспектор отдела уголовных расследований округа Нортумберленд. Эта самодостаточная женщина средних лет обладает нестандартным мышлением и жаждой справедливости. Её внутренние демоны способны доставить неприятности в личной жизни, но никак не сказываются на работе. Расследованиям Вера посвящает всю себя и требует подобной самоотдачи от подчинённых, хотя порой и понимает, что не все такие, как она, поэтому делает поблажки, давая коллегам отдохнуть и выполняя за них бумажную работу. Каждое дело инспектор принимает близко к сердцу. Ей важно не только установить личность преступника, но и мотивы, которые сподвигли его на нарушение закона. Эксцентричная манера поведения, напор и открытость по-разному действуют на людей. Однако Вера грамотно расставляет приоритеты и всегда добивается поставленных целей, держа руку на пульсе родного города…-Сэмпл: http://multi-up.com/1211306-Качество: WEB-DLRip
Формат: AVI
Видео: XviD, 720x400 (16:9), 25.000 fps, 1 999 Kbps (0.278 bit/pixel)
Аудио: AC-3, 48.0 KHz, 2 ch, 192 Kbps, CBR - русский
Аудио 2: AC-3, 48.0 KHz, 2 ch, 192 Kbps, CBR - английский-Субтитры: Отсутствуют-Реклама: Нет

Доп. информация

Рип: AlexMild
Аудиодорожки взяты отсюда (спасибо in3ganka)

Список серий

01. Кровь и кость | Blood and Bone
02. Гололедица | Black Ice
03. Дом | Home
04. Даркуотер | Darkwater

MediaInfo

Общее
Полное имя : D:\Раздачи\Vera.s08.WEB-DLRip.AMS\Vera.s08e01_Blood.and.Bone.avi
Формат : AVI
Формат/Информация : Audio Video Interleave
Размер файла : 1,50 Гбайт
Продолжительность : 1 ч. 29 м.
Общий поток : 2398 Кбит/сек
Программа кодирования : VirtualDubMod 1.5.10.2 (build 2540/release)
Библиотека кодирования : VirtualDubMod build 2540/release
Видео
Идентификатор : 0
Формат : MPEG-4 Visual
Профиль формата : Advanced Simple@L5
Параметр BVOP формата : 2
Параметр QPel формата : Нет
Параметр GMC формата : Без точки перехода
Параметр матрицы формата : Default (MPEG)
Идентификатор кодека : XVID
Идентификатор кодека/Подсказка : XviD
Продолжительность : 1 ч. 29 м.
Битрейт : 1999 Кбит/сек
Ширина : 720 пикселей
Высота : 400 пикселей
Соотношение сторон : 16:9
Частота кадров : 25,000 кадров/сек
Цветовое пространство : YUV
Субдискретизация насыщенности : 4:2:0
Битовая глубина : 8 бит
Тип развёртки : Прогрессивная
Метод сжатия : С потерями
Бит/(Пиксели*Кадры) : 0.278
Размер потока : 1,25 Гбайт (83%)
Библиотека кодирования : XviD 67
Аудио #1
Идентификатор : 1
Формат : AC-3
Формат/Информация : Audio Coding 3
Расширение режима : CM (complete main)
Параметр Endianness формата : Big
Идентификатор кодека : 2000
Продолжительность : 1 ч. 29 м.
Вид битрейта : Постоянный
Битрейт : 192 Кбит/сек
Каналы : 2 канала
Расположение каналов : Front: L R
Частота : 48,0 КГц
Частота кадров : 31,250 кадров/сек (1536 spf)
Метод сжатия : С потерями
Размер потока : 123 Мбайт (8%)
Выравнивание : Разделение по промежуткам
Продолжительность промежутка : 40 мс. (1,00 видеокадр)
Время предзагрузки промежутка : 500 мс.
Аудио #2
Идентификатор : 2
Формат : AC-3
Формат/Информация : Audio Coding 3
Расширение режима : CM (complete main)
Параметр Endianness формата : Big
Идентификатор кодека : 2000
Продолжительность : 1 ч. 29 м.
Вид битрейта : Постоянный
Битрейт : 192 Кбит/сек
Каналы : 2 канала
Расположение каналов : Front: L R
Частота : 48,0 КГц
Частота кадров : 31,250 кадров/сек (1536 spf)
Битовая глубина : 16 бит
Метод сжатия : С потерями
Размер потока : 123 Мбайт (8%)
Выравнивание : Разделение по промежуткам
Продолжительность промежутка : 40 мс. (1,00 видеокадр)
Время предзагрузки промежутка : 500 мс.

Скриншоты


Предыдущие и альтернативные раздачи
[torrents24.ru].t57795.torrent 
Торрент: Зарегистрирован [ 2018-10-09 16:55 ] · 14B72AB5905473CCE8C51C79313FE83461B45762

Скачать .torrent

Скачать

31 KB

Статус: проверено
Скачан: 0 раз
Размер: 5,99 GB

Профиль [ЛС]
Показать сообщения:    

Текущее время: 16-Дек 18:12

Часовой пояс: UTC + 3



Вы не можете начинать темы
Вы не можете отвечать на сообщения
Вы не можете редактировать свои сообщения
Вы не можете удалять свои сообщения
Вы не можете голосовать в опросах
Вы не можете прикреплять файлы к сообщениям
Вы можете скачивать файлы