Статистика раздачи
Размер:  5,71 GB   |    Зарегистрирован:  2 месяца 10 дней   |    Скачан:  1 раз

Полного источника не было: 1 месяц 13 дней

 
   
 
 

Volga ®

Пол:
Не указан
Стаж:
10 месяцев 15 дней
Сообщений:
742


Madness


Жанр: Ska, pop, new wave
Продолжительность: 01:12:30
Год выпуска: 2017
Качество: HDTV
Разрешение видео/развертка: 720p
Контейнер: TS
Видео кодек: H.264
Аудио кодек: AC3
Видео: MPEG4 Video (H264) 1280x720 50fps 10.3 Mb/s
Аудио: Dolby AC3 48000Hz 6ch 448kbps

Треклист

01. One Step Beyond (Prince Buster cover)
02. Embarrassment
03. The Prince
04. NW5
05. My Girl
06. Mr. Apples
07. Herbert
08. The Sun and the Rain
09. Blackbird
10. Wings of a Dove
11. Vietnam (Jimmy Cliff cover) (Live Debut)
12. Shut Up
1.3 House of Fun
14. Baggy Trousers
15. Our House
16. It Must Be Love (Labi Siffre cover)
Encore:
17. Madness (Prince Buster cover)
18. Night Boat to Cair

Отчёт MediaInfo / BDInfo

General
ID : 1 (0x1)
Complete name : H:\Madness - Baloise Session 2017.ts
Format : MPEG-TS
File size : 5.71 GiB
Duration : 1 h 12 min
Overall bit rate mode : Variable
Overall bit rate : 11.3 Mb/s
Video
ID : 562 (0x232)
Menu ID : 1 (0x1)
Format : AVC
Format/Info : Advanced Video Codec
Format profile : High@L4
Format settings : CABAC / 3 Ref Frames
Format settings, CABAC : Yes
Format settings, ReFrames : 3 frames
Format settings, GOP : M=2, N=24
Codec ID : 27
Duration : 1 h 12 min
Bit rate : 10.3 Mb/s
Width : 1 280 pixels
Height : 720 pixels
Display aspect ratio : 16:9
Frame rate : 50.000 FPS
Standard : Component
Color space : YUV
Chroma subsampling : 4:2:0
Bit depth : 8 bits
Scan type : Progressive
Bits/(Pixel*Frame) : 0.223
Stream size : 5.20 GiB (91%)
Color range : Limited
Color primaries : BT.709
Transfer characteristics : BT.709
Matrix coefficients : BT.709
Audio
ID : 565 (0x235)
Menu ID : 1 (0x1)
Format : AC-3
Format/Info : Audio Coding 3
Commercial name : Dolby Digital
Codec ID : 6
Duration : 1 h 12 min
Bit rate mode : Constant
Bit rate : 448 kb/s
Channel(s) : 6 channels
Channel layout : L R C LFE Ls Rs
Sampling rate : 48.0 kHz
Frame rate : 31.250 FPS (1536 SPF)
Bit depth : 16 bits
Compression mode : Lossy
Stream size : 232 MiB (4%)
Language : Italian
Service kind : Complete Main
[torrents24.ru].t57690.torrent 
Торрент: Зарегистрирован [ 2018-10-09 16:55 ] · C73DDB8FE2DFEB84AD9E439414F4581CA2FB5E02

Скачать .torrent

Скачать

15 KB

Статус: проверено
Скачан: 1 раз
Размер: 5,71 GB

Профиль [ЛС]
Показать сообщения:    

Текущее время: 19-Дек 18:37

Часовой пояс: UTC + 3



Вы не можете начинать темы
Вы не можете отвечать на сообщения
Вы не можете редактировать свои сообщения
Вы не можете удалять свои сообщения
Вы не можете голосовать в опросах
Вы не можете прикреплять файлы к сообщениям
Вы можете скачивать файлы