Статистика раздачи
Размер:  999 MB   |    Зарегистрирован:  13 дней   |    Скачан:  0 раз

Полного источника не было: Никогда

 
   
 
 

Камилла ®

Пол:
Не указан
Стаж:
7 месяцев 23 дня
Сообщений:
326

- ---Группа «Малолетка»--- - - ---Жанр: ШансонГоды издания: 2007-2009
Аудиокодек: FLAC
Тип рипа: tracks
Битрейт аудио: lossless
Продолжительность: 02:17:12
Источник (релизер): shansonchik
Наличие сканов в содержимом раздачи: да | 600 dpi |
--- -Альбомы-

| 00:49:35 | – 2007 – Памяти Петлюры

-01 - Суд девушки
02 - Туманы
03 - Стена
04 - Ночь на кладбище
05 - Белая акация
06 - Маленький мальчик - 1
07 - Два дома
08 - Алёшка
09 - 15 лет
10 - Прокурор
11 - Моя милая мама
12 - Дожди
13 - Цыганка

Лог создания рипа

Exact Audio Copy V1.0 beta 4 from 7. December 2014
Отчёт EAC об извлечении, выполненном 7. октября 2018, 14:59
Группа «Малолетка» / Памяти Петлюры
Дисковод: ASUS DRW-1814BL Adapter: 1 ID: 0
Режим чтения : Достоверность
Использование точного потока : Да
Отключение кэша аудио : Да
Использование указателей C2 : Нет
Коррекция смещения при чтении : 6
Способность читать области Lead-in и Lead-out : Нет
Заполнение пропущенных сэмплов тишиной : Да
Удаление блоков с тишиной в начале и конце : Нет
При вычислениях CRC использовались нулевые сэмплы : Да
Интерфейс : Встроенный Win32-интерфейс для Win NT/2000
Выходной формат : Пользовательский кодировщик
Выбранный битрейт : 128 kBit/s
Качество : Высокий
Добавление ID3-тега : Нет
Утилита сжатия : C:\Program Files\Exact Audio Copy\Flac\flac.exe
Дополнительные параметры : -V -8 -T "Date=%year%" -T "Genre=%genre%" %source%
TOC извлечённого CD
Трек | Старт | Длительность | Начальный сектор | Конечный сектор
---------------------------------------------------------------------
1 | 0:00.00 | 5:05.08 | 0 | 22882
2 | 5:05.08 | 3:27.29 | 22883 | 38436
3 | 8:32.37 | 4:03.30 | 38437 | 56691
4 | 12:35.67 | 4:11.59 | 56692 | 75575
5 | 16:47.51 | 5:14.63 | 75576 | 99188
6 | 22:02.39 | 2:51.15 | 99189 | 112028
7 | 24:53.54 | 3:49.05 | 112029 | 129208
8 | 28:42.59 | 4:46.04 | 129209 | 150662
9 | 33:28.63 | 2:43.08 | 150663 | 162895
10 | 36:11.71 | 3:27.20 | 162896 | 178440
11 | 39:39.16 | 3:25.13 | 178441 | 193828
12 | 43:04.29 | 3:05.53 | 193829 | 207756
13 | 46:10.07 | 3:25.44 | 207757 | 223175
Характеристики диапазона извлечения и сообщения об ошибках
Выбранный диапазон
Имя файла E:\shansonchik\Группа «Малолетка» - Памяти Петлюры.wav
Пиковый уровень 100.0 %
Скорость извлечения 7.9 X
Качество диапазона 99.9 %
CRC теста 192E2D18
CRC копии 192E2D18
Копирование... OK
Ошибок не произошло
Конец отчёта
==== Контрольная сумма отчёта 0F4E9C6C0B4BF2BB6AD7819016342C754C9D051A3E0CB07A7632864A5312AE4D ====

Tau Analyzer

| 00:45:53 | – 2008 – Второй альбом

-01 - Скорый поезд
02 - Журавли
03 - Малолетка
04 - Ветка вишни
05 - Споём, жиган
06 - Наёмник
07 - Старая церковь
08 - Не повезло
09 - Я ухожу
10 - Маленький мальчик - 2
11 - Ветер весенний
12 - Убили парня
13 - Послесловие

Лог создания рипа

Exact Audio Copy V1.0 beta 4 from 7. December 2014
Отчёт EAC об извлечении, выполненном 7. октября 2018, 15:44
Группа «Малолетка» / Второй альбом
Дисковод: ASUS DRW-1814BL Adapter: 1 ID: 0
Режим чтения : Достоверность
Использование точного потока : Да
Отключение кэша аудио : Да
Использование указателей C2 : Нет
Коррекция смещения при чтении : 6
Способность читать области Lead-in и Lead-out : Нет
Заполнение пропущенных сэмплов тишиной : Да
Удаление блоков с тишиной в начале и конце : Нет
При вычислениях CRC использовались нулевые сэмплы : Да
Интерфейс : Встроенный Win32-интерфейс для Win NT/2000
Выходной формат : Пользовательский кодировщик
Выбранный битрейт : 128 kBit/s
Качество : Высокий
Добавление ID3-тега : Нет
Утилита сжатия : C:\Program Files\Exact Audio Copy\Flac\flac.exe
Дополнительные параметры : -V -8 -T "Date=%year%" -T "Genre=%genre%" %source%
TOC извлечённого CD
Трек | Старт | Длительность | Начальный сектор | Конечный сектор
---------------------------------------------------------------------
1 | 0:00.00 | 3:18.18 | 0 | 14867
2 | 3:18.18 | 5:41.37 | 14868 | 40479
3 | 8:59.55 | 3:32.60 | 40480 | 56439
4 | 12:32.40 | 3:31.73 | 56440 | 72337
5 | 16:04.38 | 3:14.33 | 72338 | 86920
6 | 19:18.71 | 3:28.17 | 86921 | 102537
7 | 22:47.13 | 3:18.42 | 102538 | 117429
8 | 26:05.55 | 2:41.21 | 117430 | 129525
9 | 28:47.01 | 3:57.49 | 129526 | 147349
10 | 32:44.50 | 2:55.72 | 147350 | 160546
11 | 35:40.47 | 4:57.07 | 160547 | 182828
12 | 40:37.54 | 3:56.46 | 182829 | 200574
13 | 44:34.25 | 1:19.32 | 200575 | 206531
Характеристики диапазона извлечения и сообщения об ошибках
Выбранный диапазон
Имя файла E:\shansonchik\Группа «Малолетка» - Второй альбом.wav
Пиковый уровень 98.9 %
Скорость извлечения 8.1 X
Качество диапазона 100.0 %
CRC теста 47EF9F52
CRC копии 47EF9F52
Копирование... OK
Ошибок не произошло
Конец отчёта
==== Контрольная сумма отчёта 528795EE1F3D8920048195494216F3E142D6AF95A8922C9672E97B5027577DEA ====

Tau Analyzer

| 00:41:43 | – 2009 – Третий альбом

-01 - Платье белое (feat. Лёха Троицкий)
02 - Дождь
03 - Наташка (feat. Лёха Троицкий)
04 - Сумерки над лагерем спустились
05 - Роза жёлтая (feat. Лёха Троицкий)
06 - Блудница
07 - Облака (feat. Лёха Троицкий)
08 - Мокрый асфальт (feat. Лёха Троицкий)
09 - Люблю тебя (feat. Лёха Троицкий)
10 - Иркутский тракт
11 - Первое апреля
12 - Люди помогите (feat. Лёха Троицкий)

Лог создания рипа

Exact Audio Copy V1.0 beta 4 from 7. December 2014
Отчёт EAC об извлечении, выполненном 7. октября 2018, 16:46
Группа «Малолетка» / Третий альбом
Дисковод: ASUS DRW-1814BL Adapter: 1 ID: 0
Режим чтения : Достоверность
Использование точного потока : Да
Отключение кэша аудио : Да
Использование указателей C2 : Нет
Коррекция смещения при чтении : 6
Способность читать области Lead-in и Lead-out : Нет
Заполнение пропущенных сэмплов тишиной : Да
Удаление блоков с тишиной в начале и конце : Нет
При вычислениях CRC использовались нулевые сэмплы : Да
Интерфейс : Встроенный Win32-интерфейс для Win NT/2000
Выходной формат : Пользовательский кодировщик
Выбранный битрейт : 128 kBit/s
Качество : Высокий
Добавление ID3-тега : Нет
Утилита сжатия : C:\Program Files\Exact Audio Copy\Flac\flac.exe
Дополнительные параметры : -V -8 -T "Date=%year%" -T "Genre=%genre%" %source%
TOC извлечённого CD
Трек | Старт | Длительность | Начальный сектор | Конечный сектор
---------------------------------------------------------------------
1 | 0:00.00 | 3:05.51 | 0 | 13925
2 | 3:05.51 | 3:41.03 | 13926 | 30503
3 | 6:46.54 | 3:00.58 | 30504 | 44061
4 | 9:47.37 | 5:22.14 | 44062 | 68225
5 | 15:09.51 | 3:10.45 | 68226 | 82520
6 | 18:20.21 | 3:27.67 | 82521 | 98112
7 | 21:48.13 | 3:37.35 | 98113 | 114422
8 | 25:25.48 | 3:00.05 | 114423 | 127927
9 | 28:25.53 | 3:15.50 | 127928 | 142602
10 | 31:41.28 | 3:13.05 | 142603 | 157082
11 | 34:54.33 | 3:31.12 | 157083 | 172919
12 | 38:25.45 | 3:17.40 | 172920 | 187734
Характеристики диапазона извлечения и сообщения об ошибках
Выбранный диапазон
Имя файла E:\shansonchik\Группа «Малолетка» - Третий альбом.wav
Пиковый уровень 97.7 %
Скорость извлечения 7.0 X
Качество диапазона 100.0 %
CRC теста A26B04BA
CRC копии A26B04BA
Копирование... OK
Ошибок не произошло
Конец отчёта
==== Контрольная сумма отчёта 8D0D59013E074FCAD034C5DE0A36223D101232081A20D3E1ED2B810F681180B7 ====

Tau Analyzer

-
[torrents24.ru].t57659.torrent 
Торрент: Зарегистрирован [ 2018-10-08 15:40 ] · 16F7CFF45D0BD391D0343B3ACB0D0E4B586BF936

Скачать .torrent

Скачать

22 KB

Статус: проверено
Скачан: 0 раз
Размер: 999 MB

Профиль [ЛС]
Показать сообщения:    

Текущее время: 22-Окт 14:56

Часовой пояс: UTC + 3



Вы не можете начинать темы
Вы не можете отвечать на сообщения
Вы не можете редактировать свои сообщения
Вы не можете удалять свои сообщения
Вы не можете голосовать в опросах
Вы не можете прикреплять файлы к сообщениям
Вы можете скачивать файлы