Статистика раздачи
Размер:  1,36 GB   |    Зарегистрирован:  2 месяца 8 дней   |    Скачан:  0 раз

Полного источника не было: Никогда

 
   
 
 

Ueee ®

Пол:
Не указан
Стаж:
10 месяцев 7 дней
Сообщений:
893

Семинар / Seminar
Название театра: John Golden Theatre, Broadway
Страна: США
Жанр: комедия
Год выпуска: 2011
Продолжительность: 01:35:36
Перевод: Екатерина Игнатьева
Субтитры: русские Ирина Шувалова, Astartha
Оригинальная аудиодорожка: английский
Режиссёр: Сэм Голд / Sam Gold
В ролях: Алан Рикман, Этьен Парк, Лили Рейб, Хэмиш Линклейтер, Джерри О`Коннел
Описание: Спектакль "Семинар" поставлен по одноименной пьесе американского драматурга Терезы Ребек.
В этой язвительной комедии четверо молодых писателей принимают участие в семинаре, который ведет преподаватель Леонард, международная литературная легенда. Блестящий и непредсказуемый…
https://en.wikipedia.org/wiki/Seminar_(play)

Доп. информация:

Единственная в своём роде запись спектакля, любительская съёмка, смонтирована из нескольких доступных записей, сделанных зрителями из зала. Официально спектакль никогда и нигде не записывался и не издавался.
Семпл: http://multi-up.com/1210717
Качество видео: CamRip
Формат видео: MKV
Видео: AVC, 720*480, 16:9, 23.976 FPS, 1782 kb/s
Аудио: AC3, 48.0 kHz, 256 kb/s, 2 channels (Front: L R)

MediaInfo

General
Unique ID : 298268822952406006677251822771651180098 (0xE0647C5AC669C2D8BEB82BD47BD37642)
Complete name : D:\tor\Seminar_(Broadway_perfomance)[2011].mkv
Format : Matroska
Format version : Version 4 / Version 2
File size : 1.36 GiB
Duration : 1 h 35 min
Overall bit rate : 2 040 kb/s
Encoded date : UTC 2018-10-03 16:45:47 / UTC 2018-10-03T03:59:27Z
Writing application : mkvmerge v7.4.0 ('Circles') 64bit built on Sep 29 2016 19:14:16
Writing library : libebml v1.3.3 + libmatroska v1.4.1 / Lavf57.7.2
Video
ID : 1
Format : AVC
Format/Info : Advanced Video Codec
Format profile : High@L4
Format settings : CABAC / 4 Ref Frames
Format settings, CABAC : Yes
Format settings, ReFrames : 4 frames
Codec ID : V_MPEG4/ISO/AVC
Duration : 1 h 35 min
Bit rate : 1 782 kb/s
Width : 720 pixels
Height : 480 pixels
Display aspect ratio : 16:9
Frame rate mode : Constant
Frame rate : 23.976 (24000/1001) FPS
Color space : YUV
Chroma subsampling : 4:2:0
Bit depth : 8 bits
Scan type : Progressive
Bits/(Pixel*Frame) : 0.215
Stream size : 1.16 GiB (85%)
Writing library : x264 core 148 r2708 86b7198
Encoding settings : cabac=1 / ref=2 / deblock=1:0:0 / analyse=0x3:0x113 / me=hex / subme=6 / psy=1 / psy_rd=1.00:0.00 / mixed_ref=1 / me_range=16 / chroma_me=1 / trellis=1 / 8x8dct=1 / cqm=0 / deadzone=21,11 / fast_pskip=1 / chroma_qp_offset=-2 / threads=3 / lookahead_threads=1 / sliced_threads=0 / nr=0 / decimate=1 / interlaced=0 / bluray_compat=0 / constrained_intra=0 / bframes=3 / b_pyramid=2 / b_adapt=1 / b_bias=0 / direct=1 / weightb=1 / open_gop=0 / weightp=1 / keyint=240 / keyint_min=24 / scenecut=40 / intra_refresh=0 / rc_lookahead=30 / rc=2pass / mbtree=1 / bitrate=1782 / ratetol=1.0 / qcomp=0.60 / qpmin=0 / qpmax=69 / qpstep=4 / cplxblur=20.0 / qblur=0.5 / vbv_maxrate=25000 / vbv_bufsize=31250 / nal_hrd=none / filler=0 / ip_ratio=1.40 / aq=1:1.00
Default : Yes
Forced : No
Color range : Limited
Color primaries : BT.601 NTSC
Transfer characteristics : BT.709
Matrix coefficients : BT.601
Statistics Tags Issue : mkvmerge v7.4.0 ('Circles') 64bit built on Sep 29 2016 19:14:16 2018-10-03 16:45:47 / mkvmerge v7.4.0 ('Circles') 64bit built on Sep 29 2016 19:14:16 2018-10-03 16:45:47 / UTC 2018-10-03T03:59:27Z
FromStats_BitRate : 1782060
FromStats_Duration : 01:35:36.648000000
FromStats_FrameCount : 137542
FromStats_StreamSize : 1277881401
Audio
ID : 2
Format : AC-3
Format/Info : Audio Coding 3
Codec ID : A_AC3
Duration : 1 h 35 min
Bit rate mode : Constant
Bit rate : 256 kb/s
Channel(s) : 2 channels
Channel positions : Front: L R
Sampling rate : 48.0 kHz
Frame rate : 31.250 FPS (1536 SPF)
Bit depth : 16 bits
Compression mode : Lossy
Stream size : 175 MiB (13%)
Title : Stereo
Language : English
Service kind : Complete Main
Default : Yes
Forced : No
Statistics Tags Issue : mkvmerge v7.4.0 ('Circles') 64bit built on Sep 29 2016 19:14:16 2018-10-03 16:45:47 / mkvmerge v7.4.0 ('Circles') 64bit built on Sep 29 2016 19:14:16 2018-10-03 16:45:47 / UTC 2018-10-03T03:59:27Z
FromStats_BitRate : 256000
FromStats_Duration : 01:35:36.160000000
FromStats_FrameCount : 179255
FromStats_StreamSize : 183557120
Text
ID : 3
Format : UTF-8
Codec ID : S_TEXT/UTF8
Codec ID/Info : UTF-8 Plain Text
Language : Russian
Default : Yes
Forced : No
Statistics Tags Issue : mkvmerge v7.4.0 ('Circles') 64bit built on Sep 29 2016 19:14:16 2018-10-03 16:45:47 / mkvmerge v7.4.0 ('Circles') 64bit built on Sep 29 2016 19:14:16 2018-10-03 16:45:47 / UTC 2018-10-03T03:59:27Z
FromStats_BitRate : 161
FromStats_Duration : 01:34:49.515000000
FromStats_FrameCount : 1716
FromStats_StreamSize : 114521

Скриншот с названием постановки

Скриншоты

Фрагмент субтитров

7
00:00:24,186 --> 00:00:27,674
Хочу сказать, что это просто
потрясающее место
8
00:00:29,074 --> 00:00:34,999
Территория парка вообще словно
удивительный скульптурный пейзаж,
9
00:00:36,020 --> 00:00:39,664
где всё будто высечено из деревьев
и воды так,
10
00:00:40,226 --> 00:00:43,218
что внешний мир сливается с внутренним
11
00:00:46,419 --> 00:00:47,806
Представляете?
12
00:00:50,790 --> 00:00:52,613
Вас окружает эта изысканная,
13
00:00:52,809 --> 00:00:54,779
нереально совершенная обстановка
14
00:00:54,914 --> 00:00:58,641
Здания едва не парят над лужайками,
как в жаркий день,
15
00:00:58,881 --> 00:01:02,961
когда воздух настолько прогрет,
что его можно потрогать рукой,
16
00:01:03,140 --> 00:01:05,020
и сама усадьба поднимается в воздух
17
00:01:05,200 --> 00:01:06,980
Даже деревья настолько живые,
18
00:01:07,130 --> 00:01:10,320
что вы физически ощущаете,
как они растут
19
00:01:10,480 --> 00:01:11,920
Я серьёзно!
20
00:01:12,350 --> 00:01:16,840
Вы вдруг осознаёте, что все эти
средневековые концепции волшебства
21
00:01:16,960 --> 00:01:18,720
родились не на пустом месте
22
00:01:18,930 --> 00:01:23,400
Что подобная реальность, где всё
постоянно растёт, не зная увядания,
23
00:01:23,540 --> 00:01:26,790
в те времена казалась чуть ли
не колдовством
24
00:01:26,910 --> 00:01:31,280
По крайней мере у меня было такое
чувство в этой творческой среде
25
00:01:31,330 --> 00:01:33,070
Там внутренний и внешний мир
26
00:01:33,250 --> 00:01:35,250
находятся в таком равновесии!
27
00:01:35,360 --> 00:01:37,200
Как пытался передать Индиго Джонс
[torrents24.ru].t57542.torrent 
Торрент: Зарегистрирован [ 2018-10-08 15:40 ] · 22E8E150FA9EBC8DE64CBD46419D7CB3EB60795E

Скачать .torrent

Скачать

28 KB

Статус: проверено
Скачан: 0 раз
Размер: 1,36 GB

Профиль [ЛС]
Показать сообщения:    

Текущее время: 16-Дек 18:21

Часовой пояс: UTC + 3



Вы не можете начинать темы
Вы не можете отвечать на сообщения
Вы не можете редактировать свои сообщения
Вы не можете удалять свои сообщения
Вы не можете голосовать в опросах
Вы не можете прикреплять файлы к сообщениям
Вы можете скачивать файлы