Статистика раздачи
Размер:  32,07 GB   |    Зарегистрирован:  18 дней   |    Скачан:  0 раз

Полного источника не было: Никогда

 
   
 
 

maria ®

Пол:
Не указан
Стаж:
8 месяцев 14 дней
Сообщений:
387

Mafia / Мафия - 63 Выпусков & Mafia. Секретные Материалы - 9 Выпусков
Дата/Год выпуска: 2009
Страна: Россия
Жанр: Развлекательное Шоу
Продолжительность: 1 Выпуск ~ 48 минут
Перевод: Не требуется
Русские субтитры: нет
Оригинальная аудиодорожка: нет
Телеканал: МУЗ
Описание: Увлекательная детективная игра «MAFIA» Участвуют все звезды шоу-бизнеса и конечно звезды телеканала Муз-ТВ! Неизвестно какую роль предстоит им играть. Кто станет мирным жителем, а кто войдет в группировку "Мафии"? Чтобы победить, нужно изрядно потрудиться и разбудить свою интуицию. Выживет тот, кто будет крайне осторожен, тактичен и внимателен.
Ведущий: Александр Пряников
Доп. информация: К сожалению, в Выпуске от 2009.09.23 не хватает 8 минут в середине игры. Были проблемы с сигналом.
Перераздача http://rutracker.org/forum/viewtopic.php?t=2300448
Автор рипа: z0liCh
Сэмпл: https://yadi.sk/i/tGOejyZA3YwtpX
качество: TVRip
формат: AVI
Видео: XviD
Аудио: MP3

Список Выпусков

Выпуск от 02.09.2009

Тех. Данные

Видео : 694x476 (1.46:1), 25 fps, XviD MPEG-4 ~1194 kbps avg, 0.14 bit/pixel
Аудио : 48 kHz, MPEG Layer 3, 2 ch, ~128.00 kbps avg

Участники

Сати Казанова, Саша Савельева, Ира Тонева, Ренарс Кауперс, Меджик, Марис Михельсонс, Каспарс Рога, Slim, Сергей Покусаев, Дмитрий Соловьёв.

Скриншоты

Выпуск от 09.09.2009

Тех. Данные

Видео : 694x476 (1.46:1), 25 fps, XviD MPEG-4 ~1194 kbps avg, 0.14 bit/pixel
Аудио : 48 kHz, MPEG Layer 3, 2 ch, ~128.00 kbps avg

Участники

Юлия Михальчик, Карина Кокс, Евгений Синицкая, Виктория Локтева, Александр Дульщиков, Паша Пудан, Леха Албутов, Валентин Рахманько, Дмитрий Волков, Василий Рачин.

Скриншоты

Выпуск от 10.09.2009

Тех. Данные

Видео : 694x476 (1.46:1), 25 fps, XviD MPEG-4 ~1194 kbps avg, 0.14 bit/pixel
Аудио : 48 kHz, MPEG Layer 3, 2 ch, ~128.00 kbps avg

Участники

Ирина Ортман, Анастасия Крайнова, Маша Вебер, Наталья Ростова, Леся Ярославская, Ника Сваровская, Влад Соколовский, Дмитрий Бикбаев, Оксана Устинова, Леонид Руденко.

Скриншоты

Выпуск от 14.09.2009

Тех. Данные

Видео : 694x476 (1.46:1), 25 fps, XviD MPEG-4 ~1194 kbps avg, 0.14 bit/pixel
Аудио : 48 kHz, MPEG Layer 3, 2 ch, ~128.00 kbps avg

Участники

Ёлка, Батишта [Бандерос], Наташа [Бандерос], Таня [Бандерос], Игорь [Бандерос], Сергей Ашихмин, Артем Иванов, Денис Ермолаев, Гоша Окатов, Наталья Милявская.

Скриншоты

Выпуск от 16.09.2009

Тех. Данные

Видео : 694x476 (1.46:1), 25 fps, XviD MPEG-4 ~1194 kbps avg, 0.14 bit/pixel
Аудио : 48 kHz, MPEG Layer 3, 2 ch, ~128.00 kbps avg

Участники

Влад Топалов, Dj Feniks, Леонид Руденко, Ренарс Кауперс, Меджик, Каспарс Рога, Марис Михельсонс, Алексей Гоман, Марк Тишман, Юлия Савичева.

Скриншоты

Выпуск от 17.09.2009

Тех. Данные

Видео : 694x476 (1.46:1), 25 fps, XviD MPEG-4 ~1194 kbps avg, 0.14 bit/pixel
Аудио : 48 kHz, MPEG Layer 3, 2 ch, ~128.00 kbps avg

Участники

Лера Кудрявцева, Катя Лель, Полина Гагарина, Ирина Дубцова, Виктория Боня, Карнелия Манго, Ирина Ортман, Елена Малинина, Ксения Шведова, Юлия Михальчик.

Скриншоты

Выпуск от 21.09.2009

Тех. Данные

Видео : 694x476 (1.46:1), 25 fps, XviD MPEG-4 ~1194 kbps avg, 0.14 bit/pixel
Аудио : 48 kHz, MPEG Layer 3, 2 ch, ~128.00 kbps avg

Участники

Влад Топалов, Арсений Бородин, Роман Архипов, Ден Петров, Алексей Корзин, Илья Зудин, Илья Дуров, Вера Горбуленко, Елена Лаптева, Наталья Шулакова.

Скриншоты

Выпуск от 22.09.2009

Тех. Данные

Видео : 694x476 (1.46:1), 25 fps, XviD MPEG-4 ~1194 kbps avg, 0.14 bit/pixel
Аудио : 48 kHz, MPEG Layer 3, 2 ch, ~128.00 kbps avg

Участники

Ая, Дим, Маша, Лиза, Марк Тишман, Андрей Кутила, Стас Рублев, Мила, Корнелия Манго, Тимур Соловьёв.

Скриншоты

Выпуск от 23.09.2009

Тех. Данные

Видео : 694x476 (1.46:1), 25 fps, XviD MPEG-4 ~1194 kbps avg, 0.14 bit/pixel
Аудио : 48 kHz, MPEG Layer 3, 2 ch, ~128.00 kbps avg

Участники

Птаха, Noize MC, Полина Гриффитс, Татьяна Бондаренка, Михаил Венгеров, Дмитрий Федоров, Алекс Ди, Дмитрий Штофф, Владимир Лихотин, Екатерина Дзергун.

Скриншоты

К сожалению, нехватает 8 минут в середине игры. Были проблемы с сигналом.

Выпуск от 24.09.2009

Тех. Данные

Видео : 694x476 (1.46:1), 25 fps, XviD MPEG-4 ~1194 kbps avg, 0.14 bit/pixel
Аудио : 48 kHz, MPEG Layer 3, 2 ch, ~128.00 kbps avg

Участники

Сергей Зверев, Анфиса Чехова, Катя Лель, Лера Кудрявцева, Юлия Михальчик, Виктория Боня, Паша Артемьев, Александр Асташенок, Алексей Кабанов, Александр Бердников.

Скриншоты

Выпуск от 26.09.2009

Тех. Данные

Видео : 694x476 (1.46:1), 25 fps, XviD MPEG-4 ~1194 kbps avg, 0.14 bit/pixel
Аудио : 48 kHz, MPEG Layer 3, 2 ch, ~128.00 kbps avg

Участники

Тая Катюша, Леха Албутов, Катя Кандалина, Паша Пудан, Оксана Устинова, Азия, Федя-МегаДрайв, Кристина, Юлия Грицук, Тимур Соловьев.

Скриншоты

Выпуск от 28.09.2009

Тех. Данные

Видео : 694x476 (1.46:1), 25 fps, XviD MPEG-4 ~1194 kbps avg, 0.14 bit/pixel
Аудио : 48 kHz, MPEG Layer 3, 2 ch, ~128.00 kbps avg

Участники

Серега, Макс Лоренц, Вячеслав Бодолика, Жан Милимеров, Марат Чанышев, Мари, Артем Иванов, Сергей Ашихмин, Оксана Петровская, Кристина Куплевацкая.

Скриншоты

Выпуск от 05.10.2009

Тех. Данные

Видео : 694x426 (1.63:1), 25 fps, XviD build 50 ~1199 kbps avg, 0.16 bit/pixel
Аудио : 48 kHz, MPEG Layer 3, 2 ch, ~128.00 kbps avg

Участники

Азия, Анастасия Гребенкина, Алексей Чумаков, Виктория Морозова, Дмитрий Носов, Алла Довлатова, Алекс Ди, Рита Челмакова, Тимур Соловьев.

Скриншоты

Выпуск от 06.10.2009

Тех. Данные

Видео : 694x426 (1.63:1), 25 fps, XviD build 50 ~1199 kbps avg, 0.16 bit/pixel
Аудио : 48 kHz, MPEG Layer 3, 2 ch, ~128.00 kbps avg

Участники

Надя Ручка, Настя Осипова, Анна Дубовицкая, Юлиана Лукашева, Роман Черницын, Максим Постельный, Тая Катюша, Марина Грааоренко, Сергей Князев.

Скриншоты

Выпуск от 07.10.2009

Тех. Данные

Видео : 694x426 (1.63:1), 25 fps, XviD build 50 ~1199 kbps avg, 0.16 bit/pixel
Аудио : 48 kHz, MPEG Layer 3, 2 ch, ~128.00 kbps avg

Участники

Митя Фомин, Леонид Закошанский, Виктория Лопырева, Слава, Андрей Разыграев, Артем Сорокин, Арман Давлетяров, Татьяна Терешина, Иван Николаев.

Скриншоты

Выпуск от 08.10.2009

Тех. Данные

Видео : 694x426 (1.63:1), 25 fps, XviD build 50 ~1199 kbps avg, 0.16 bit/pixel
Аудио : 48 kHz, MPEG Layer 3, 2 ch, ~128.00 kbps avg

Участники

Рома Кенга, Женя Малахова, Алена Торганова, Лена Максимова, Михаил Гребенщиков, Инна, Лена, Александр Шульгин, Елена Ворошилова, .

Скриншоты

Выпуск от 12.10.2009

Тех. Данные

Видео : 694x426 (1.63:1), 25 fps, XviD build 50 ~1199 kbps avg, 0.16 bit/pixel
Аудио : 48 kHz, MPEG Layer 3, 2 ch, ~128.00 kbps avg

Участники

Зара, Батишта, Таня, Игорь, Владимир Широков, Руслан Алехно, Анна Нахманович, Алесандр Пархоменко, Анастасия Дубакина.

Скриншоты

Выпуск от 13.10.2009

Тех. Данные

Видео : 694x426 (1.63:1), 25 fps, XviD build 50 ~1199 kbps avg, 0.16 bit/pixel
Аудио : 48 kHz, MPEG Layer 3, 2 ch, ~128.00 kbps avg

Участники

Андрей Малахов, Маша Малиновская, Алик Сирадекиан, Аслан Ахмадов, Давид Геворков, Митя Фомин, Анита Цой, Влад Лисовец, Вита Самойлова.

Скриншоты

Выпуск от 14.10.2009

Тех. Данные

Видео : 694x426 (1.63:1), 25 fps, XviD build 50 ~1199 kbps avg, 0.16 bit/pixel
Аудио : 48 kHz, MPEG Layer 3, 2 ch, ~128.00 kbps avg

Участники

Анна Плетнева, Сергей Жуков, Антон Зацепин, Ри, Александр Панайотов, Катя Гордон, Сергей Розанов, Сергей Королев, Раймонд Геганян.

Скриншоты

Выпуск от 15.10.2009

Тех. Данные

Видео : 694x426 (1.63:1), 25 fps, XviD build 50 ~1199 kbps avg, 0.16 bit/pixel
Аудио : 48 kHz, MPEG Layer 3, 2 ch, ~128.00 kbps avg

Участники

Ирина Забияка, Dino MC 47, Дмитрий Носов, Виктория Дайнеко, Светлана Лобода, Влад Соколовский, Дмитрий Бикбаев, Ксения Бородина, Артем Иванов.

Скриншоты

Выпуск от 19.10.2009

Тех. Данные

Видео : 694x426 (1.63:1), 25 fps, XviD build 50 ~1199 kbps avg, 0.16 bit/pixel
Аудио : 48 kHz, MPEG Layer 3, 2 ch, ~128.00 kbps avg

Участники

Маша, Юлия, Тоня, Олеся, Лена, Макс Лоренц, Игорь Кокс, Роман Горенков, Оксана Скрипина.

Скриншоты

Выпуск от 20.10.2009

Тех. Данные

Видео : 694x426 (1.63:1), 25 fps, XviD build 50 ~1199 kbps avg, 0.16 bit/pixel
Аудио : 48 kHz, MPEG Layer 3, 2 ch, ~128.00 kbps avg

Участники

Сати Казанова, Ирина Тонева, Саша Савельева, Илья Сафронов, Сергей Сафронов, Андрей Сафронов, Таша Боксер, Павел Прудников, Юлия Дождева.

Скриншоты

Выпуск от 22.10.2009

Тех. Данные

Видео : 694x426 (1.63:1), 25 fps, XviD build 50 ~1199 kbps avg, 0.16 bit/pixel
Аудио : 48 kHz, MPEG Layer 3, 2 ch, ~128.00 kbps avg

Участники

Таир Мамедов, Наталья Подольская, Оксана Федорова, Антон Комолов, Ольга Шелест, Ната Сахрынина, Александр Дульщиков, Анна Галицкая, Александр Лемутов.

Скриншоты

Выпуск от 26.10.2009

Тех. Данные

Видео : 694x426 (1.63:1), 25 fps, XviD build 50 ~1199 kbps avg, 0.16 bit/pixel
Аудио : 48 kHz, MPEG Layer 3, 2 ch, ~128.00 kbps avg

Участники

Алексей Гоман, Алексей Воробьев, Анна Деречна, Тимофей Пронькин, Катя Ли, Кирилл Колгушкин, Юлия Морозова, Мария Зайцева, Александр Силаев.

Скриншоты

Выпуск от 27.10.2009

Тех. Данные

Видео : 694x426 (1.63:1), 25 fps, XviD build 50 ~1199 kbps avg, 0.16 bit/pixel
Аудио : 48 kHz, MPEG Layer 3, 2 ch, ~128.00 kbps avg

Участники

Анастасия Мыскина, Дакота, Татьяна Зыкина, Олег Рой, Андрей Корнилов, Катя Пугачева, Лейла Фатахова , Артем Артемьев, Павел Мартыненко.

Скриншоты

Выпуск от 28.10.2009

Тех. Данные

Видео : 694x426 (1.63:1), 25 fps, XviD build 50 ~1199 kbps avg, 0.16 bit/pixel
Аудио : 48 kHz, MPEG Layer 3, 2 ch, ~128.00 kbps avg

Участники

Артем Кузьмин, Савва Морозов, Аня Ранетка, Наташа Ранетка, Лена Ранетки, Женя Ранетка, Нюта Ранетка, Света Левенкова, Катя Ковальская.

Скриншоты

Выпуск от 29.10.2009

Тех. Данные

Видео : 694x426 (1.63:1), 25 fps, XviD build 50 ~1199 kbps avg, 0.16 bit/pixel
Аудио : 48 kHz, MPEG Layer 3, 2 ch, ~128.00 kbps avg

Участники

Марина Хлебникова, Петр Дранга, Татьяна Богачева, Артем Иванов, Вика Талышинская, Саша Шоуа, Карнелия Манго, Оля Майборот, Михаил Антонов.

Скриншоты

Выпуск от 02.11.2009

Тех. Данные

Видео : 694x426 (1.63:1), 25 fps, XviD build 50 ~1199 kbps avg, 0.16 bit/pixel
Аудио : 48 kHz, MPEG Layer 3, 2 ch, ~128.00 kbps avg

Участники

Гавр, Ольга Русан, Ренат Ибрагимов, Маша, Дин, Ая, Олег Верещагин, Сима Антонова, Катя Девяткина.

Скриншоты

Выпуск от 03.11.2009

Тех. Данные

Видео : 694x426 (1.63:1), 25 fps, XviD build 50 ~1199 kbps avg, 0.16 bit/pixel
Аудио : 48 kHz, MPEG Layer 3, 2 ch, ~128.00 kbps avg

Участники

Руслан Соболь, Марат Чанышев, Илья Зудин, Анна Шишкина, Роберт Нижегородцев, Вячеслав Бодолика, Алесандр Лившиц, Катя Белоконь, Илья Дуров.

Скриншоты

Выпуск от 04.11.2009

Тех. Данные

Видео : 694x426 (1.63:1), 25 fps, XviD build 50 ~1199 kbps avg, 0.16 bit/pixel
Аудио : 48 kHz, MPEG Layer 3, 2 ch, ~128.00 kbps avg

Участники

Максим, Эмиль Панахов, Илья, Анна, Иван, Любовь Сергеева, Валентин, Денис Косяков, Электра.

Скриншоты

Выпуск от 05.11.2009

Тех. Данные

Видео : 694x426 (1.63:1), 25 fps, XviD build 50 ~1199 kbps avg, 0.16 bit/pixel
Аудио : 48 kHz, MPEG Layer 3, 2 ch, ~128.00 kbps avg

Участники

Дарья Сагалова, Ден Петров, Дакота, Артем Гнус, Евгения Аксютина, Дмитрий Колдун, Леонид Руденко, Алексей Анищенко, Алексей Чумаков.

Скриншоты

Выпуск от 09.11.2009

Тех. Данные

Видео : 694x426 (1.63:1), 25 fps, XviD build 50 ~1199 kbps avg, 0.16 bit/pixel
Аудио : 48 kHz, MPEG Layer 3, 2 ch, ~128.00 kbps avg

Участники

Роман Черницын, Лена Ленина, Яна Лапутина, Максим Постельный, Маша Вебер, Владимир Тишко, Ольга Чернышева, Олег Жуков, Даша Макаренкова.

Скриншоты

Выпуск от 10.11.2009

Тех. Данные

Видео : 694x426 (1.63:1), 25 fps, XviD build 50 ~1199 kbps avg, 0.16 bit/pixel
Аудио : 48 kHz, MPEG Layer 3, 2 ch, ~128.00 kbps avg

Участники

Анна Моравская, Анна Pops, Валерия Березицкая, Ольга Бузова, Оксана Казакова, Марина Иванова, Денис Новиков, Павел Масной, Макс Ричи.

Скриншоты

Выпуск от 11.11.2009

Тех. Данные

Видео : 694x426 (1.63:1), 25 fps, XviD build 50 ~1199 kbps avg, 0.16 bit/pixel
Аудио : 48 kHz, MPEG Layer 3, 2 ch, ~128.00 kbps avg

Участники

Сергей Аморалов, Том Хаос, Гарик, Нюша, Павел Виноградов, Паша Пудан, Виктор Бакс, Лада Дэнс, Евгения Полякова.

Скриншоты

Выпуск от 12.11.2009

Тех. Данные

Видео : 694x426 (1.63:1), 25 fps, XviD build 50 ~1199 kbps avg, 0.16 bit/pixel
Аудио : 48 kHz, MPEG Layer 3, 2 ch, ~128.00 kbps avg

Участники

Антонина Шаповалова, Дарья Миронова, Ирсен Кудикова, Марк Тишман, Илья Сафронов, Андрей Сафронов, Сергей Сафронов, Надежда Славина, Виктория Боня.

Скриншоты

Выпуск от 16.11.2009

Тех. Данные

Видео : 694x426 (1.63:1), 25 fps, XviD build 50 ~1199 kbps avg, 0.16 bit/pixel
Аудио : 48 kHz, MPEG Layer 3, 2 ch, ~128.00 kbps avg

Участники

Карина Кокс, Андрей Родной, Роман Клячкин, Евгения Синицкая, Виктория Локтева, Лена Перова, Дмитрий Однопозов, Николай Рочев, Виктория Максимова.

Скриншоты

Выпуск от 17.11.2009

Тех. Данные

Видео : 694x426 (1.63:1), 25 fps, XviD build 50 ~1199 kbps avg, 0.16 bit/pixel
Аудио : 48 kHz, MPEG Layer 3, 2 ch, ~128.00 kbps avg

Участники

Виктор Дробыш, Слава, Ирина Ортман, Зара, Наталья Подольская, Диана Церекидзе, Александра Гуркова, Роман Архипов, Арсений Бородин.

Скриншоты

Выпуск от 18.11.2009

Тех. Данные

Видео : 694x426 (1.63:1), 25 fps, XviD build 50 ~1199 kbps avg, 0.16 bit/pixel
Аудио : 48 kHz, MPEG Layer 3, 2 ch, ~128.00 kbps avg

Участники

Влад Кадони, Александр Литвин, Диля Абдрашитова, Седа Варданян, Бахыт Жуматова, Максим Воротников, Зираддин Рзаев, Александр Нурмин, Алексей Похабов.

Скриншоты

Выпуск от 19.11.2009

Тех. Данные

Видео : 694x426 (1.63:1), 25 fps, XviD build 50 ~1199 kbps avg, 0.16 bit/pixel
Аудио : 48 kHz, MPEG Layer 3, 2 ch, ~128.00 kbps avg

Участники

Саймон, Анна Плетнева, Илья Давыдов, Светлана Иванова, Елка, Dino MC 47, Екатерина Иванова, Алина Ярцева, Сергей Петров.

Скриншоты

Выпуск от 23.11.2009

Тех. Данные

Видео : 694x426 (1.63:1), 25 fps, XviD build 50 ~1199 kbps avg, 0.16 bit/pixel
Аудио : 48 kHz, MPEG Layer 3, 2 ch, ~128.00 kbps avg

Участники

Маша Цигаль, Александр Бердников, Алексей Кабанов, Полина Гагарина, Олег Чинаров, Михаил Венгеров, Леонид Руденко, Марианна Шенгели, Анастасия Морозова.

Скриншоты

Выпуск от 24.11.2009

Тех. Данные

Видео : 694x426 (1.63:1), 25 fps, XviD build 50 ~1199 kbps avg, 0.16 bit/pixel
Аудио : 48 kHz, MPEG Layer 3, 2 ch, ~128.00 kbps avg

Участники

Алена Высоцкая, Светалана Мастеркова, Таня Богачева, Сергей Ашихмин, Мария Бутырская, Бари Алибасов, Ксения Бородина, Александр Науменко, Денис Авдеев.

Скриншоты

Выпуск от 25.11.2009

Тех. Данные

Видео : 694x426 (1.63:1), 25 fps, XviD build 50 ~1199 kbps avg, 0.16 bit/pixel
Аудио : 48 kHz, MPEG Layer 3, 2 ch, ~128.00 kbps avg

Участники

Леонид Овруцкий, Денис Вертунов, Антон Сергеев, Важный, Триз, Грейс, Настя Крайнова, Альбина Джанабаева, Татьяна Котова.

Скриншоты

Выпуск от 26.11.2009

Тех. Данные

Видео : 694x426 (1.63:1), 25 fps, XviD build 50 ~1199 kbps avg, 0.16 bit/pixel
Аудио : 48 kHz, MPEG Layer 3, 2 ch, ~128.00 kbps avg

Участники

Влад Топалов, Елена Темникова, Ольга Серябкина, Анастасия Карпова, Виктория Лопырева, Леонид Закошанский, Кирилл Андреев, Дмитрий Носов, Александр Ягья.

Скриншоты

Выпуск от 30.11.2009

Тех. Данные

Видео : 694x426 (1.63:1), 25 fps, XviD build 50 ~1199 kbps avg, 0.16 bit/pixel
Аудио : 48 kHz, MPEG Layer 3, 2 ch, ~128.00 kbps avg

Участники

Артем Сорокин, Слава, Сергей Лазарев, Лера Кудрявцева, Арман Давлетьяров, Юлия Саркисова, Настя Осипова, Анна Дубовицкая, Татьяна Терешина .

Скриншоты

Выпуск от 01.12.2009

Тех. Данные

Видео : 694x426 (1.63:1), 25 fps, XviD build 50 ~1199 kbps avg, 0.16 bit/pixel
Аудио : 48 kHz, MPEG Layer 3, 2 ch, ~128.00 kbps avg

Участники

Ренарс Кауперс, Меджик, Марис Михельсонс, Катя Белоконь, Анастасия Гребенкина, Дмитрий Федоров, Андрей Петров, Ольга Кичатова, Фрося Бубликова .

Скриншоты

Выпуск от 02.12.2009

Тех. Данные

Видео : 694x426 (1.63:1), 25 fps, XviD build 50 ~1199 kbps avg, 0.16 bit/pixel
Аудио : 48 kHz, MPEG Layer 3, 2 ch, ~128.00 kbps avg

Участники

Сергей Зверев, Сергей Зверев мл., Тимур Соловьев, Владимир Широков, Светлана Мастеркова, Дмитрий Федоров, Серега, Катя Гордон, Константин Крюков.

Скриншоты

Выпуск от 03.12.2009

Тех. Данные

Видео : 694x426 (1.63:1), 25 fps, XviD build 50 ~1199 kbps avg, 0.16 bit/pixel
Аудио : 48 kHz, MPEG Layer 3, 2 ch, ~128.00 kbps avg

Участники

Ренарс Кауперс, Меджик, Марис Михельсонс, Дмитрий Носов, Ри, Юлия Ковальчук, Иракли Пирцхалава, Денис Никифоров, Владимир Тишко .

Скриншоты

Mafia. Секретные Материалы Год выпуска : 2009
Страна : Россия
Жанр : Развлекательное Шоу
Продолжительность: 1 Выпуск ~ 48 минут
Описание: Обзор игры за неделю. Интервью с участниками.
Качество: TVRip
Формат: AVI
Видео кодек: XviD
Аудио кодек: MP3

Список Выпусков

Выпуск от 09.10.2009

Тех. Данные

Видео : 694x426 (1.63:1), 25 fps, XviD build 50 ~1199 kbps avg, 0.16 bit/pixel
Аудио : 48 kHz, MPEG Layer 3, 2 ch, ~128.00 kbps avg

Скриншоты

Обзор игр с 05.10.2009 по 08.10.2009

Выпуск от 16.10.2009

Тех. Данные

Видео : 694x426 (1.63:1), 25 fps, XviD build 50 ~1199 kbps avg, 0.16 bit/pixel
Аудио : 48 kHz, MPEG Layer 3, 2 ch, ~128.00 kbps avg

Скриншоты

Обзор игр с 12.10.2009 по 15.10.2009

Выпуск от 23.10.2009

Тех. Данные

Видео : 694x426 (1.63:1), 25 fps, XviD build 50 ~1199 kbps avg, 0.16 bit/pixel
Аудио : 48 kHz, MPEG Layer 3, 2 ch, ~128.00 kbps avg

Скриншоты

Обзор игр с 19.10.2009 по 22.10.2009

Выпуск от 30.10.2009

Тех. Данные

Видео : 694x426 (1.63:1), 25 fps, XviD build 50 ~1199 kbps avg, 0.16 bit/pixel
Аудио : 48 kHz, MPEG Layer 3, 2 ch, ~128.00 kbps avg

Скриншоты

Обзор игр с 26.10.2009 по 29.10.2009

Выпуск от 06.11.2009

Тех. Данные

Видео : 694x426 (1.63:1), 25 fps, XviD build 50 ~1199 kbps avg, 0.16 bit/pixel
Аудио : 48 kHz, MPEG Layer 3, 2 ch, ~128.00 kbps avg

Скриншоты

Обзор игр с 02.11.2009 по 05.11.2009

Выпуск от 13.11.2009

Тех. Данные

Видео : 694x426 (1.63:1), 25 fps, XviD build 50 ~1199 kbps avg, 0.16 bit/pixel
Аудио : 48 kHz, MPEG Layer 3, 2 ch, ~128.00 kbps avg

Скриншоты

Обзор игр с 09.11.2009 по 12.11.2009

Выпуск от 20.11.2009

Тех. Данные

Видео : 694x426 (1.63:1), 25 fps, XviD build 50 ~1199 kbps avg, 0.16 bit/pixel
Аудио : 48 kHz, MPEG Layer 3, 2 ch, ~128.00 kbps avg

Скриншоты

Обзор игр с 16.11.2009 по 19.11.2009

Выпуск от 27.11.2009

Тех. Данные

Видео : 694x426 (1.63:1), 25 fps, XviD build 50 ~1199 kbps avg, 0.16 bit/pixel
Аудио : 48 kHz, MPEG Layer 3, 2 ch, ~128.00 kbps avg

Скриншоты

Обзор игр с 23.11.2009 по 26.11.2009

Выпуск от 04.12.2009

Тех. Данные

Видео : 694x426 (1.63:1), 25 fps, XviD build 50 ~1199 kbps avg, 0.16 bit/pixel
Аудио : 48 kHz, MPEG Layer 3, 2 ch, ~128.00 kbps avg

Скриншоты

Обзор игр с 30.11.2009 по 03.12.2009

MediaInfo Mafia. Секретные Материалы

Общее
Полное имя : E:\torrents\! Doe\Mafia (МУЗ) [2009, TVRip]\Mafia. Секретные Материалы\Mafia. Секретные Материалы - 04.12.2009.avi
Формат : AVI
Формат/Информация : Audio Video Interleave
Размер файла : 456 Мбайт
Продолжительность : 47 м. 45 с.
Общий поток : 1336 Кбит/сек
Программа кодирования : VirtualDubMod 1.5.10.2 (build 2542/release)
Библиотека кодирования : VirtualDubMod build 2542/release
Видео
Идентификатор : 0
Формат : MPEG-4 Visual
Профиль формата : Simple@L3
Параметр BVOP формата : Нет
Параметр QPel формата : Нет
Параметр GMC формата : Без точки перехода
Параметр матрицы формата : Default (H.263)
Идентификатор кодека : XVID
Идентификатор кодека/Подсказка : XviD
Продолжительность : 47 м. 45 с.
Битрейт : 1198 Кбит/сек
Ширина : 694 пикселя
Высота : 426 пикселей
Соотношение сторон : 16:10
Частота кадров : 25,000 кадров/сек
Цветовое пространство : YUV
Субдискретизация насыщенности : 4:2:0
Битовая глубина : 8 бит
Тип развёртки : Прогрессивная
Метод сжатия : С потерями
Бит/(Пиксели*Кадры) : 0.162
Размер потока : 409 Мбайт (90%)
Библиотека кодирования : XviD 1.2.1 (UTC 2008-12-04)
Аудио
Идентификатор : 1
Формат : MPEG Audio
Версия формата : Version 1
Профиль формата : Layer 3
Идентификатор кодека : 55
Идентификатор кодека/Подсказка : MP3
Продолжительность : 47 м. 42 с.
Вид битрейта : Постоянный
Битрейт : 128 Кбит/сек
Каналы : 2 канала
Частота : 48,0 КГц
Частота кадров : 41,667 кадра/сек (1152 SPF)
Метод сжатия : С потерями
Размер потока : 43,7 Мбайт (10%)
Выравнивание : Соединение по промежуткам
Продолжительность промежутка : 40 мс. (1,00 видеокадр)
Время предзагрузки промежутка : 504 мс.
Библиотека кодирования : LAME3.92
Настройки программы : -m s -V 4 -q 2 -lowpass 13.8 -b 128
Общее
Полное имя : E:\torrents\! Doe\Mafia (МУЗ) [2009, TVRip]\Mafia. Секретные Материалы\Mafia. Секретные Материалы - 06.11.2009.avi
Формат : AVI
Формат/Информация : Audio Video Interleave
Размер файла : 457 Мбайт
Продолжительность : 47 м. 57 с.
Общий поток : 1334 Кбит/сек
Программа кодирования : VirtualDubMod 1.5.10.2 (build 2542/release)
Библиотека кодирования : VirtualDubMod build 2542/release
Видео
Идентификатор : 0
Формат : MPEG-4 Visual
Профиль формата : Simple@L3
Параметр BVOP формата : Нет
Параметр QPel формата : Нет
Параметр GMC формата : Без точки перехода
Параметр матрицы формата : Default (H.263)
Идентификатор кодека : XVID
Идентификатор кодека/Подсказка : XviD
Продолжительность : 47 м. 57 с.
Битрейт : 1196 Кбит/сек
Ширина : 694 пикселя
Высота : 426 пикселей
Соотношение сторон : 16:10
Частота кадров : 25,000 кадров/сек
Цветовое пространство : YUV
Субдискретизация насыщенности : 4:2:0
Битовая глубина : 8 бит
Тип развёртки : Прогрессивная
Метод сжатия : С потерями
Бит/(Пиксели*Кадры) : 0.162
Размер потока : 410 Мбайт (90%)
Библиотека кодирования : XviD 1.2.1 (UTC 2008-12-04)
Аудио
Идентификатор : 1
Формат : MPEG Audio
Версия формата : Version 1
Профиль формата : Layer 3
Идентификатор кодека : 55
Идентификатор кодека/Подсказка : MP3
Продолжительность : 47 м. 57 с.
Вид битрейта : Постоянный
Битрейт : 128 Кбит/сек
Каналы : 2 канала
Частота : 44,1 КГц
Метод сжатия : С потерями
Задержка видео : 200 мс.
Размер потока : 43,9 Мбайт (10%)
Выравнивание : Разделение по промежуткам
Продолжительность промежутка : 40 мс. (1,00 видеокадр)
Время предзагрузки промежутка : 500 мс.
Общее
Полное имя : E:\torrents\! Doe\Mafia (МУЗ) [2009, TVRip]\Mafia. Секретные Материалы\Mafia. Секретные Материалы - 09.10.2009.avi
Формат : AVI
Формат/Информация : Audio Video Interleave
Размер файла : 455 Мбайт
Продолжительность : 47 м. 38 с.
Общий поток : 1335 Кбит/сек
Программа кодирования : VirtualDubMod 1.5.10.2 (build 2542/release)
Библиотека кодирования : VirtualDubMod build 2542/release
Видео
Идентификатор : 0
Формат : MPEG-4 Visual
Профиль формата : Simple@L3
Параметр BVOP формата : Нет
Параметр QPel формата : Нет
Параметр GMC формата : Без точки перехода
Параметр матрицы формата : Default (H.263)
Идентификатор кодека : XVID
Идентификатор кодека/Подсказка : XviD
Продолжительность : 47 м. 38 с.
Битрейт : 1198 Кбит/сек
Ширина : 694 пикселя
Высота : 426 пикселей
Соотношение сторон : 16:10
Частота кадров : 25,000 кадров/сек
Цветовое пространство : YUV
Субдискретизация насыщенности : 4:2:0
Битовая глубина : 8 бит
Тип развёртки : Прогрессивная
Метод сжатия : С потерями
Бит/(Пиксели*Кадры) : 0.162
Размер потока : 408 Мбайт (90%)
Библиотека кодирования : XviD 1.2.1 (UTC 2008-12-04)
Аудио
Идентификатор : 1
Формат : MPEG Audio
Версия формата : Version 1
Профиль формата : Layer 3
Настройки формата : Joint stereo / MS Stereo
Идентификатор кодека : 55
Идентификатор кодека/Подсказка : MP3
Продолжительность : 47 м. 25 с.
Вид битрейта : Постоянный
Битрейт : 128 Кбит/сек
Каналы : 2 канала
Частота : 44,1 КГц
Метод сжатия : С потерями
Размер потока : 43,4 Мбайт (10%)
Выравнивание : Разделение по промежуткам
Продолжительность промежутка : 40 мс. (1,00 видеокадр)
Время предзагрузки промежутка : 500 мс.
Общее
Полное имя : E:\torrents\! Doe\Mafia (МУЗ) [2009, TVRip]\Mafia. Секретные Материалы\Mafia. Секретные Материалы - 13.11.2009.avi
Формат : AVI
Формат/Информация : Audio Video Interleave
Размер файла : 458 Мбайт
Продолжительность : 47 м. 54 с.
Общий поток : 1337 Кбит/сек
Программа кодирования : VirtualDubMod 1.5.10.2 (build 2542/release)
Библиотека кодирования : VirtualDubMod build 2542/release
Видео
Идентификатор : 0
Формат : MPEG-4 Visual
Профиль формата : Simple@L3
Параметр BVOP формата : Нет
Параметр QPel формата : Нет
Параметр GMC формата : Без точки перехода
Параметр матрицы формата : Default (H.263)
Идентификатор кодека : XVID
Идентификатор кодека/Подсказка : XviD
Продолжительность : 47 м. 54 с.
Битрейт : 1199 Кбит/сек
Ширина : 694 пикселя
Высота : 426 пикселей
Соотношение сторон : 16:10
Частота кадров : 25,000 кадров/сек
Цветовое пространство : YUV
Субдискретизация насыщенности : 4:2:0
Битовая глубина : 8 бит
Тип развёртки : Прогрессивная
Метод сжатия : С потерями
Бит/(Пиксели*Кадры) : 0.162
Размер потока : 411 Мбайт (90%)
Библиотека кодирования : XviD 1.2.1 (UTC 2008-12-04)
Аудио
Идентификатор : 1
Формат : MPEG Audio
Версия формата : Version 1
Профиль формата : Layer 3
Идентификатор кодека : 55
Идентификатор кодека/Подсказка : MP3
Продолжительность : 47 м. 54 с.
Вид битрейта : Постоянный
Битрейт : 128 Кбит/сек
Каналы : 2 канала
Частота : 48,0 КГц
Метод сжатия : С потерями
Задержка видео : 16 мс.
Размер потока : 43,9 Мбайт (10%)
Выравнивание : Разделение по промежуткам
Продолжительность промежутка : 40 мс. (1,00 видеокадр)
Время предзагрузки промежутка : 500 мс.
Общее
Полное имя : E:\torrents\! Doe\Mafia (МУЗ) [2009, TVRip]\Mafia. Секретные Материалы\Mafia. Секретные Материалы - 16.10.2009.avi
Формат : AVI
Формат/Информация : Audio Video Interleave
Размер файла : 458 Мбайт
Продолжительность : 47 м. 57 с.
Общий поток : 1336 Кбит/сек
Видео
Идентификатор : 0
Формат : MPEG-4 Visual
Профиль формата : Simple@L3
Параметр BVOP формата : Нет
Параметр QPel формата : Нет
Параметр GMC формата : Без точки перехода
Параметр матрицы формата : Default (H.263)
Идентификатор кодека : XVID
Идентификатор кодека/Подсказка : XviD
Продолжительность : 47 м. 57 с.
Битрейт : 1196 Кбит/сек
Ширина : 694 пикселя
Высота : 426 пикселей
Соотношение сторон : 16:10
Частота кадров : 25,000 кадров/сек
Цветовое пространство : YUV
Субдискретизация насыщенности : 4:2:0
Битовая глубина : 8 бит
Тип развёртки : Прогрессивная
Метод сжатия : С потерями
Бит/(Пиксели*Кадры) : 0.162
Размер потока : 410 Мбайт (89%)
Библиотека кодирования : XviD 1.2.1 (UTC 2008-12-04)
Аудио
Идентификатор : 1
Формат : MPEG Audio
Версия формата : Version 1
Профиль формата : Layer 3
Идентификатор кодека : 55
Идентификатор кодека/Подсказка : MP3
Продолжительность : 47 м. 57 с.
Продолжительность оригинала : 47 м. 57 с.
Вид битрейта : Постоянный
Битрейт : 128 Кбит/сек
Каналы : 2 канала
Частота : 44,1 КГц
Метод сжатия : С потерями
Размер потока : 43,9 Мбайт (10%)
Выравнивание : Разделение по промежуткам
Продолжительность промежутка : 26 мс. (0,65 видеокадр)
Общее
Полное имя : E:\torrents\! Doe\Mafia (МУЗ) [2009, TVRip]\Mafia. Секретные Материалы\Mafia. Секретные Материалы - 20.11.2009.avi
Формат : AVI
Формат/Информация : Audio Video Interleave
Размер файла : 457 Мбайт
Продолжительность : 47 м. 57 с.
Общий поток : 1333 Кбит/сек
Программа кодирования : VirtualDubMod 1.5.10.2 (build 2542/release)
Библиотека кодирования : VirtualDubMod build 2542/release
Видео
Идентификатор : 0
Формат : MPEG-4 Visual
Профиль формата : Simple@L3
Параметр BVOP формата : Нет
Параметр QPel формата : Нет
Параметр GMC формата : Без точки перехода
Параметр матрицы формата : Default (H.263)
Идентификатор кодека : XVID
Идентификатор кодека/Подсказка : XviD
Продолжительность : 47 м. 57 с.
Битрейт : 1196 Кбит/сек
Ширина : 694 пикселя
Высота : 426 пикселей
Соотношение сторон : 16:10
Частота кадров : 25,000 кадров/сек
Цветовое пространство : YUV
Субдискретизация насыщенности : 4:2:0
Битовая глубина : 8 бит
Тип развёртки : Прогрессивная
Метод сжатия : С потерями
Бит/(Пиксели*Кадры) : 0.162
Размер потока : 410 Мбайт (90%)
Библиотека кодирования : XviD 1.2.1 (UTC 2008-12-04)
Аудио
Идентификатор : 1
Формат : MPEG Audio
Версия формата : Version 1
Профиль формата : Layer 3
Идентификатор кодека : 55
Идентификатор кодека/Подсказка : MP3
Продолжительность : 47 м. 57 с.
Вид битрейта : Постоянный
Битрейт : 128 Кбит/сек
Каналы : 2 канала
Частота : 44,1 КГц
Метод сжатия : С потерями
Задержка видео : 200 мс.
Размер потока : 43,9 Мбайт (10%)
Выравнивание : Разделение по промежуткам
Продолжительность промежутка : 40 мс. (1,00 видеокадр)
Время предзагрузки промежутка : 500 мс.
Общее
Полное имя : E:\torrents\! Doe\Mafia (МУЗ) [2009, TVRip]\Mafia. Секретные Материалы\Mafia. Секретные Материалы - 23.10.2009.avi
Формат : AVI
Формат/Информация : Audio Video Interleave
Размер файла : 460 Мбайт
Продолжительность : 47 м. 57 с.
Общий поток : 1340 Кбит/сек
Видео
Идентификатор : 0
Формат : MPEG-4 Visual
Профиль формата : Simple@L3
Параметр BVOP формата : Нет
Параметр QPel формата : Нет
Параметр GMC формата : Без точки перехода
Параметр матрицы формата : Default (H.263)
Идентификатор кодека : XVID
Идентификатор кодека/Подсказка : XviD
Продолжительность : 47 м. 57 с.
Битрейт : 1199 Кбит/сек
Ширина : 694 пикселя
Высота : 426 пикселей
Соотношение сторон : 16:10
Частота кадров : 25,000 кадров/сек
Цветовое пространство : YUV
Субдискретизация насыщенности : 4:2:0
Битовая глубина : 8 бит
Тип развёртки : Прогрессивная
Метод сжатия : С потерями
Бит/(Пиксели*Кадры) : 0.162
Размер потока : 411 Мбайт (89%)
Библиотека кодирования : XviD 1.2.1 (UTC 2008-12-04)
Аудио
Идентификатор : 1
Формат : MPEG Audio
Версия формата : Version 1
Профиль формата : Layer 3
Идентификатор кодека : 55
Идентификатор кодека/Подсказка : MP3
Продолжительность : 47 м. 57 с.
Продолжительность оригинала : 47 м. 57 с.
Вид битрейта : Постоянный
Битрейт : 128 Кбит/сек
Каналы : 2 канала
Частота : 48,0 КГц
Метод сжатия : С потерями
Размер потока : 43,9 Мбайт (10%)
Выравнивание : Разделение по промежуткам
Продолжительность промежутка : 24 мс. (0,60 видеокадр)
Общее
Полное имя : E:\torrents\! Doe\Mafia (МУЗ) [2009, TVRip]\Mafia. Секретные Материалы\Mafia. Секретные Материалы - 27.11.2009.avi
Формат : AVI
Формат/Информация : Audio Video Interleave
Размер файла : 459 Мбайт
Продолжительность : 48 м. 0 с.
Общий поток : 1336 Кбит/сек
Видео
Идентификатор : 0
Формат : MPEG-4 Visual
Профиль формата : Simple@L3
Параметр BVOP формата : Нет
Параметр QPel формата : Нет
Параметр GMC формата : Без точки перехода
Параметр матрицы формата : Default (H.263)
Идентификатор кодека : XVID
Идентификатор кодека/Подсказка : XviD
Продолжительность : 48 м. 0 с.
Битрейт : 1196 Кбит/сек
Ширина : 694 пикселя
Высота : 426 пикселей
Соотношение сторон : 16:10
Частота кадров : 25,000 кадров/сек
Цветовое пространство : YUV
Субдискретизация насыщенности : 4:2:0
Битовая глубина : 8 бит
Тип развёртки : Прогрессивная
Метод сжатия : С потерями
Бит/(Пиксели*Кадры) : 0.162
Размер потока : 411 Мбайт (89%)
Библиотека кодирования : XviD 1.2.1 (UTC 2008-12-04)
Аудио
Идентификатор : 1
Формат : MPEG Audio
Версия формата : Version 1
Профиль формата : Layer 3
Идентификатор кодека : 55
Идентификатор кодека/Подсказка : MP3
Продолжительность : 48 м. 0 с.
Продолжительность оригинала : 48 м. 0 с.
Вид битрейта : Постоянный
Битрейт : 128 Кбит/сек
Каналы : 2 канала
Частота : 44,1 КГц
Метод сжатия : С потерями
Размер потока : 44,0 Мбайт (10%)
Выравнивание : Разделение по промежуткам
Продолжительность промежутка : 26 мс. (0,65 видеокадр)
Общее
Полное имя : E:\torrents\! Doe\Mafia (МУЗ) [2009, TVRip]\Mafia. Секретные Материалы\Mafia. Секретные Материалы - 30.10.2009.avi
Формат : AVI
Формат/Информация : Audio Video Interleave
Размер файла : 458 Мбайт
Продолжительность : 47 м. 59 с.
Общий поток : 1333 Кбит/сек
Программа кодирования : VirtualDubMod 1.5.10.2 (build 2542/release)
Библиотека кодирования : VirtualDubMod build 2542/release
Видео
Идентификатор : 0
Формат : MPEG-4 Visual
Профиль формата : Simple@L3
Параметр BVOP формата : Нет
Параметр QPel формата : Нет
Параметр GMC формата : Без точки перехода
Параметр матрицы формата : Default (H.263)
Идентификатор кодека : XVID
Идентификатор кодека/Подсказка : XviD
Продолжительность : 47 м. 59 с.
Битрейт : 1196 Кбит/сек
Ширина : 694 пикселя
Высота : 426 пикселей
Соотношение сторон : 16:10
Частота кадров : 25,000 кадров/сек
Цветовое пространство : YUV
Субдискретизация насыщенности : 4:2:0
Битовая глубина : 8 бит
Тип развёртки : Прогрессивная
Метод сжатия : С потерями
Бит/(Пиксели*Кадры) : 0.162
Размер потока : 410 Мбайт (90%)
Библиотека кодирования : XviD 1.2.1 (UTC 2008-12-04)
Аудио
Идентификатор : 1
Формат : MPEG Audio
Версия формата : Version 1
Профиль формата : Layer 3
Идентификатор кодека : 55
Идентификатор кодека/Подсказка : MP3
Продолжительность : 47 м. 59 с.
Вид битрейта : Постоянный
Битрейт : 128 Кбит/сек
Каналы : 2 канала
Частота : 44,1 КГц
Метод сжатия : С потерями
Задержка видео : 400 мс.
Размер потока : 43,9 Мбайт (10%)
Выравнивание : Разделение по промежуткам
Продолжительность промежутка : 40 мс. (1,00 видеокадр)
Время предзагрузки промежутка : 500 мс.

MediaInfo Mafia

Общее
Полное имя : E:\torrents\! Doe\Mafia\Mafia\Mafia. 06.10.2009.avi
Формат : AVI
Формат/Информация : Audio Video Interleave
Размер файла : 447 Мбайт
Продолжительность : 46 м. 51 с.
Общий поток : 1334 Кбит/сек
Программа кодирования : VirtualDubMod 1.5.10.2 (build 2542/release)
Библиотека кодирования : VirtualDubMod build 2542/release
Видео
Идентификатор : 0
Формат : MPEG-4 Visual
Профиль формата : Simple@L3
Параметр BVOP формата : Нет
Параметр QPel формата : Нет
Параметр GMC формата : Без точки перехода
Параметр матрицы формата : Default (H.263)
Идентификатор кодека : XVID
Идентификатор кодека/Подсказка : XviD
Продолжительность : 46 м. 51 с.
Битрейт : 1200 Кбит/сек
Ширина : 694 пикселя
Высота : 426 пикселей
Соотношение сторон : 16:10
Частота кадров : 25,000 кадров/сек
Цветовое пространство : YUV
Субдискретизация насыщенности : 4:2:0
Битовая глубина : 8 бит
Тип развёртки : Прогрессивная
Метод сжатия : С потерями
Бит/(Пиксели*Кадры) : 0.162
Размер потока : 402 Мбайт (90%)
Библиотека кодирования : XviD 1.2.1 (UTC 2008-12-04)
Аудио
Идентификатор : 1
Формат : MPEG Audio
Версия формата : Version 1
Профиль формата : Layer 3
Настройки формата : Joint stereo / MS Stereo
Идентификатор кодека : 55
Идентификатор кодека/Подсказка : MP3
Продолжительность : 45 м. 43 с.
Вид битрейта : Постоянный
Битрейт : 128 Кбит/сек
Каналы : 2 канала
Частота : 44,1 КГц
Метод сжатия : С потерями
Размер потока : 41,9 Мбайт (9%)
Выравнивание : Разделение по промежуткам
Продолжительность промежутка : 41 мс. (1,02 видеокадр)
Время предзагрузки промежутка : 500 мс.
Общее
Полное имя : E:\torrents\! Doe\Mafia\Mafia\Mafia. 07.10.2009.avi
Формат : AVI
Формат/Информация : Audio Video Interleave
Размер файла : 460 Мбайт
Продолжительность : 47 м. 56 с.
Общий поток : 1340 Кбит/сек
Видео
Идентификатор : 0
Формат : MPEG-4 Visual
Профиль формата : Simple@L3
Параметр BVOP формата : Нет
Параметр QPel формата : Нет
Параметр GMC формата : Без точки перехода
Параметр матрицы формата : Default (H.263)
Идентификатор кодека : XVID
Идентификатор кодека/Подсказка : XviD
Продолжительность : 47 м. 56 с.
Битрейт : 1199 Кбит/сек
Ширина : 694 пикселя
Высота : 426 пикселей
Соотношение сторон : 16:10
Частота кадров : 25,000 кадров/сек
Цветовое пространство : YUV
Субдискретизация насыщенности : 4:2:0
Битовая глубина : 8 бит
Тип развёртки : Прогрессивная
Метод сжатия : С потерями
Бит/(Пиксели*Кадры) : 0.162
Размер потока : 411 Мбайт (89%)
Библиотека кодирования : XviD 1.2.1 (UTC 2008-12-04)
Аудио
Идентификатор : 1
Формат : MPEG Audio
Версия формата : Version 1
Профиль формата : Layer 3
Идентификатор кодека : 55
Идентификатор кодека/Подсказка : MP3
Продолжительность : 47 м. 56 с.
Продолжительность оригинала : 47 м. 56 с.
Вид битрейта : Постоянный
Битрейт : 128 Кбит/сек
Каналы : 2 канала
Частота : 48,0 КГц
Метод сжатия : С потерями
Размер потока : 43,9 Мбайт (10%)
Выравнивание : Разделение по промежуткам
Продолжительность промежутка : 24 мс. (0,60 видеокадр)
Общее
Полное имя : E:\torrents\! Doe\Mafia\Mafia\Mafia. 08.10.2009.avi
Формат : AVI
Формат/Информация : Audio Video Interleave
Размер файла : 457 Мбайт
Продолжительность : 47 м. 46 с.
Общий поток : 1337 Кбит/сек
Программа кодирования : VirtualDubMod 1.5.10.2 (build 2542/release)
Библиотека кодирования : VirtualDubMod build 2542/release
Видео
Идентификатор : 0
Формат : MPEG-4 Visual
Профиль формата : Simple@L3
Параметр BVOP формата : Нет
Параметр QPel формата : Нет
Параметр GMC формата : Без точки перехода
Параметр матрицы формата : Default (H.263)
Идентификатор кодека : XVID
Идентификатор кодека/Подсказка : XviD
Продолжительность : 47 м. 46 с.
Битрейт : 1199 Кбит/сек
Ширина : 694 пикселя
Высота : 426 пикселей
Соотношение сторон : 16:10
Частота кадров : 25,000 кадров/сек
Цветовое пространство : YUV
Субдискретизация насыщенности : 4:2:0
Битовая глубина : 8 бит
Тип развёртки : Прогрессивная
Метод сжатия : С потерями
Бит/(Пиксели*Кадры) : 0.162
Размер потока : 410 Мбайт (90%)
Библиотека кодирования : XviD 1.2.1 (UTC 2008-12-04)
Аудио
Идентификатор : 1
Формат : MPEG Audio
Версия формата : Version 1
Профиль формата : Layer 3
Настройки формата : Joint stereo / MS Stereo
Идентификатор кодека : 55
Идентификатор кодека/Подсказка : MP3
Продолжительность : 47 м. 36 с.
Вид битрейта : Постоянный
Битрейт : 128 Кбит/сек
Каналы : 2 канала
Частота : 44,1 КГц
Метод сжатия : С потерями
Размер потока : 43,6 Мбайт (10%)
Выравнивание : Разделение по промежуткам
Продолжительность промежутка : 40 мс. (1,00 видеокадр)
Время предзагрузки промежутка : 500 мс.
Общее
Полное имя : E:\torrents\! Doe\Mafia\Mafia\Mafia. 09.09.2009.avi
Формат : AVI
Формат/Информация : Audio Video Interleave
Размер файла : 456 Мбайт
Продолжительность : 47 м. 51 с.
Общий поток : 1332 Кбит/сек
Программа кодирования : VirtualDubMod 1.5.10.2 (build 2542/release)
Библиотека кодирования : VirtualDubMod build 2542/release
Видео
Идентификатор : 0
Формат : MPEG-4 Visual
Профиль формата : Advanced Simple@L5
Настройки формата : BVOP2
Параметр BVOP формата : 2
Параметр QPel формата : Нет
Параметр GMC формата : Без точки перехода
Параметр матрицы формата : Default (H.263)
Режим смешивания : Сжатый битовый поток
Идентификатор кодека : XVID
Идентификатор кодека/Подсказка : XviD
Продолжительность : 47 м. 51 с.
Битрейт : 1195 Кбит/сек
Ширина : 694 пикселя
Высота : 476 пикселей
Соотношение сторон : 1,222
Соотношение сторон в оригинале : 3:2
Частота кадров : 25,000 кадров/сек
Цветовое пространство : YUV
Субдискретизация насыщенности : 4:2:0
Битовая глубина : 8 бит
Тип развёртки : Прогрессивная
Метод сжатия : С потерями
Бит/(Пиксели*Кадры) : 0.145
Размер потока : 409 Мбайт (90%)
Библиотека кодирования : XviD 1.2.1 (UTC 2008-12-04)
Аудио
Идентификатор : 1
Формат : MPEG Audio
Версия формата : Version 1
Профиль формата : Layer 3
Идентификатор кодека : 55
Идентификатор кодека/Подсказка : MP3
Продолжительность : 47 м. 51 с.
Вид битрейта : Постоянный
Битрейт : 128 Кбит/сек
Каналы : 2 канала
Частота : 48,0 КГц
Частота кадров : 41,667 кадра/сек (1152 SPF)
Метод сжатия : С потерями
Размер потока : 43,8 Мбайт (10%)
Выравнивание : Соединение по промежуткам
Продолжительность промежутка : 40 мс. (1,00 видеокадр)
Время предзагрузки промежутка : 504 мс.
Библиотека кодирования : LAME3.92
Настройки программы : -m s -V 4 -q 2 -lowpass 13.8 -b 128
Общее
Полное имя : E:\torrents\! Doe\Mafia\Mafia\Mafia. 09.11.2009.avi
Формат : AVI
Формат/Информация : Audio Video Interleave
Размер файла : 459 Мбайт
Продолжительность : 47 м. 58 с.
Общий поток : 1337 Кбит/сек
Видео
Идентификатор : 0
Формат : MPEG-4 Visual
Профиль формата : Simple@L3
Параметр BVOP формата : Нет
Параметр QPel формата : Нет
Параметр GMC формата : Без точки перехода
Параметр матрицы формата : Default (H.263)
Идентификатор кодека : XVID
Идентификатор кодека/Подсказка : XviD
Продолжительность : 47 м. 58 с.
Битрейт : 1197 Кбит/сек
Ширина : 694 пикселя
Высота : 426 пикселей
Соотношение сторон : 16:10
Частота кадров : 25,000 кадров/сек
Цветовое пространство : YUV
Субдискретизация насыщенности : 4:2:0
Битовая глубина : 8 бит
Тип развёртки : Прогрессивная
Метод сжатия : С потерями
Бит/(Пиксели*Кадры) : 0.162
Размер потока : 411 Мбайт (89%)
Библиотека кодирования : XviD 1.2.1 (UTC 2008-12-04)
Аудио
Идентификатор : 1
Формат : MPEG Audio
Версия формата : Version 1
Профиль формата : Layer 3
Идентификатор кодека : 55
Идентификатор кодека/Подсказка : MP3
Продолжительность : 47 м. 58 с.
Продолжительность оригинала : 47 м. 58 с.
Вид битрейта : Постоянный
Битрейт : 128 Кбит/сек
Каналы : 2 канала
Частота : 44,1 КГц
Метод сжатия : С потерями
Размер потока : 43,9 Мбайт (10%)
Выравнивание : Разделение по промежуткам
Продолжительность промежутка : 26 мс. (0,65 видеокадр)
Общее
Полное имя : E:\torrents\! Doe\Mafia\Mafia\Mafia. 10.09.2009.avi
Формат : AVI
Формат/Информация : Audio Video Interleave
Размер файла : 457 Мбайт
Продолжительность : 47 м. 58 с.
Общий поток : 1332 Кбит/сек
Программа кодирования : VirtualDubMod 1.5.10.2 (build 2542/release)
Библиотека кодирования : VirtualDubMod build 2542/release
Видео
Идентификатор : 0
Формат : MPEG-4 Visual
Профиль формата : Advanced Simple@L5
Настройки формата : BVOP2
Параметр BVOP формата : 2
Параметр QPel формата : Нет
Параметр GMC формата : Без точки перехода
Параметр матрицы формата : Default (H.263)
Режим смешивания : Сжатый битовый поток
Идентификатор кодека : XVID
Идентификатор кодека/Подсказка : XviD
Продолжительность : 47 м. 58 с.
Битрейт : 1195 Кбит/сек
Ширина : 694 пикселя
Высота : 476 пикселей
Соотношение сторон : 1,222
Соотношение сторон в оригинале : 3:2
Частота кадров : 25,000 кадров/сек
Цветовое пространство : YUV
Субдискретизация насыщенности : 4:2:0
Битовая глубина : 8 бит
Тип развёртки : Прогрессивная
Метод сжатия : С потерями
Бит/(Пиксели*Кадры) : 0.145
Размер потока : 410 Мбайт (90%)
Библиотека кодирования : XviD 1.2.1 (UTC 2008-12-04)
Аудио
Идентификатор : 1
Формат : MPEG Audio
Версия формата : Version 1
Профиль формата : Layer 3
Идентификатор кодека : 55
Идентификатор кодека/Подсказка : MP3
Продолжительность : 47 м. 58 с.
Вид битрейта : Постоянный
Битрейт : 128 Кбит/сек
Каналы : 2 канала
Частота : 48,0 КГц
Частота кадров : 41,667 кадра/сек (1152 SPF)
Метод сжатия : С потерями
Размер потока : 43,9 Мбайт (10%)
Выравнивание : Соединение по промежуткам
Продолжительность промежутка : 40 мс. (1,00 видеокадр)
Время предзагрузки промежутка : 504 мс.
Библиотека кодирования : LAME3.92
Настройки программы : -m s -V 4 -q 2 -lowpass 13.8 -b 128
Общее
Полное имя : E:\torrents\! Doe\Mafia\Mafia\Mafia. 10.11.2009.avi
Формат : AVI
Формат/Информация : Audio Video Interleave
Размер файла : 458 Мбайт
Продолжительность : 47 м. 59 с.
Общий поток : 1334 Кбит/сек
Программа кодирования : VirtualDubMod 1.5.10.2 (build 2542/release)
Библиотека кодирования : VirtualDubMod build 2542/release
Видео
Идентификатор : 0
Формат : MPEG-4 Visual
Профиль формата : Simple@L3
Параметр BVOP формата : Нет
Параметр QPel формата : Нет
Параметр GMC формата : Без точки перехода
Параметр матрицы формата : Default (H.263)
Идентификатор кодека : XVID
Идентификатор кодека/Подсказка : XviD
Продолжительность : 47 м. 59 с.
Битрейт : 1197 Кбит/сек
Ширина : 694 пикселя
Высота : 426 пикселей
Соотношение сторон : 16:10
Частота кадров : 25,000 кадров/сек
Цветовое пространство : YUV
Субдискретизация насыщенности : 4:2:0
Битовая глубина : 8 бит
Тип развёртки : Прогрессивная
Метод сжатия : С потерями
Бит/(Пиксели*Кадры) : 0.162
Размер потока : 411 Мбайт (90%)
Библиотека кодирования : XviD 1.2.1 (UTC 2008-12-04)
Аудио
Идентификатор : 1
Формат : MPEG Audio
Версия формата : Version 1
Профиль формата : Layer 3
Идентификатор кодека : 55
Идентификатор кодека/Подсказка : MP3
Продолжительность : 47 м. 58 с.
Вид битрейта : Постоянный
Битрейт : 128 Кбит/сек
Каналы : 2 канала
Частота : 44,1 КГц
Метод сжатия : С потерями
Задержка видео : 200 мс.
Размер потока : 43,9 Мбайт (10%)
Выравнивание : Разделение по промежуткам
Продолжительность промежутка : 40 мс. (1,00 видеокадр)
Время предзагрузки промежутка : 500 мс.
Общее
Полное имя : E:\torrents\! Doe\Mafia\Mafia\Mafia. 11.11.2009.avi
Формат : AVI
Формат/Информация : Audio Video Interleave
Размер файла : 453 Мбайт
Продолжительность : 47 м. 29 с.
Общий поток : 1333 Кбит/сек
Программа кодирования : VirtualDubMod 1.5.10.2 (build 2542/release)
Библиотека кодирования : VirtualDubMod build 2542/release
Видео
Идентификатор : 0
Формат : MPEG-4 Visual
Профиль формата : Simple@L3
Параметр BVOP формата : Нет
Параметр QPel формата : Нет
Параметр GMC формата : Без точки перехода
Параметр матрицы формата : Default (H.263)
Идентификатор кодека : XVID
Идентификатор кодека/Подсказка : XviD
Продолжительность : 47 м. 29 с.
Битрейт : 1196 Кбит/сек
Ширина : 694 пикселя
Высота : 426 пикселей
Соотношение сторон : 16:10
Частота кадров : 25,000 кадров/сек
Цветовое пространство : YUV
Субдискретизация насыщенности : 4:2:0
Битовая глубина : 8 бит
Тип развёртки : Прогрессивная
Метод сжатия : С потерями
Бит/(Пиксели*Кадры) : 0.162
Размер потока : 406 Мбайт (90%)
Библиотека кодирования : XviD 1.2.1 (UTC 2008-12-04)
Аудио
Идентификатор : 1
Формат : MPEG Audio
Версия формата : Version 1
Профиль формата : Layer 3
Идентификатор кодека : 55
Идентификатор кодека/Подсказка : MP3
Продолжительность : 47 м. 29 с.
Вид битрейта : Постоянный
Битрейт : 128 Кбит/сек
Каналы : 2 канала
Частота : 44,1 КГц
Метод сжатия : С потерями
Задержка видео : 200 мс.
Размер потока : 43,5 Мбайт (10%)
Выравнивание : Разделение по промежуткам
Продолжительность промежутка : 40 мс. (1,00 видеокадр)
Время предзагрузки промежутка : 500 мс.
Общее
Полное имя : E:\torrents\! Doe\Mafia\Mafia\Mafia. 12.10.2009.avi
Формат : AVI
Формат/Информация : Audio Video Interleave
Размер файла : 460 Мбайт
Продолжительность : 47 м. 56 с.
Общий поток : 1341 Кбит/сек
Видео
Идентификатор : 0
Формат : MPEG-4 Visual
Профиль формата : Simple@L3
Параметр BVOP формата : Нет
Параметр QPel формата : Нет
Параметр GMC формата : Без точки перехода
Параметр матрицы формата : Default (H.263)
Идентификатор кодека : XVID
Идентификатор кодека/Подсказка : XviD
Продолжительность : 47 м. 56 с.
Битрейт : 1199 Кбит/сек
Ширина : 694 пикселя
Высота : 426 пикселей
Соотношение сторон : 16:10
Частота кадров : 25,000 кадров/сек
Цветовое пространство : YUV
Субдискретизация насыщенности : 4:2:0
Битовая глубина : 8 бит
Тип развёртки : Прогрессивная
Метод сжатия : С потерями
Бит/(Пиксели*Кадры) : 0.162
Размер потока : 411 Мбайт (89%)
Библиотека кодирования : XviD 1.2.1 (UTC 2008-12-04)
Аудио
Идентификатор : 1
Формат : MPEG Audio
Версия формата : Version 1
Профиль формата : Layer 3
Идентификатор кодека : 55
Идентификатор кодека/Подсказка : MP3
Продолжительность : 47 м. 56 с.
Продолжительность оригинала : 47 м. 56 с.
Вид битрейта : Постоянный
Битрейт : 128 Кбит/сек
Каналы : 2 канала
Частота : 48,0 КГц
Метод сжатия : С потерями
Размер потока : 43,9 Мбайт (10%)
Выравнивание : Разделение по промежуткам
Продолжительность промежутка : 24 мс. (0,60 видеокадр)
Общее
Полное имя : E:\torrents\! Doe\Mafia\Mafia\Mafia. 12.11.2009.avi
Формат : AVI
Формат/Информация : Audio Video Interleave
Размер файла : 457 Мбайт
Продолжительность : 47 м. 57 с.
Общий поток : 1334 Кбит/сек
Программа кодирования : VirtualDubMod 1.5.10.2 (build 2542/release)
Библиотека кодирования : VirtualDubMod build 2542/release
Видео
Идентификатор : 0
Формат : MPEG-4 Visual
Профиль формата : Simple@L3
Параметр BVOP формата : Нет
Параметр QPel формата : Нет
Параметр GMC формата : Без точки перехода
Параметр матрицы формата : Default (H.263)
Идентификатор кодека : XVID
Идентификатор кодека/Подсказка : XviD
Продолжительность : 47 м. 57 с.
Битрейт : 1196 Кбит/сек
Ширина : 694 пикселя
Высота : 426 пикселей
Соотношение сторон : 16:10
Частота кадров : 25,000 кадров/сек
Цветовое пространство : YUV
Субдискретизация насыщенности : 4:2:0
Битовая глубина : 8 бит
Тип развёртки : Прогрессивная
Метод сжатия : С потерями
Бит/(Пиксели*Кадры) : 0.162
Размер потока : 410 Мбайт (90%)
Библиотека кодирования : XviD 1.2.1 (UTC 2008-12-04)
Аудио
Идентификатор : 1
Формат : MPEG Audio
Версия формата : Version 1
Профиль формата : Layer 3
Идентификатор кодека : 55
Идентификатор кодека/Подсказка : MP3
Продолжительность : 47 м. 57 с.
Вид битрейта : Постоянный
Битрейт : 128 Кбит/сек
Каналы : 2 канала
Частота : 44,1 КГц
Метод сжатия : С потерями
Задержка видео : 200 мс.
Размер потока : 43,9 Мбайт (10%)
Выравнивание : Разделение по промежуткам
Продолжительность промежутка : 40 мс. (1,00 видеокадр)
Время предзагрузки промежутка : 500 мс.
Общее
Полное имя : E:\torrents\! Doe\Mafia\Mafia\Mafia. 13.10.2009.avi
Формат : AVI
Формат/Информация : Audio Video Interleave
Размер файла : 452 Мбайт
Продолжительность : 47 м. 27 с.
Общий поток : 1332 Кбит/сек
Программа кодирования : VirtualDubMod 1.5.10.2 (build 2542/release)
Библиотека кодирования : VirtualDubMod build 2542/release
Видео
Идентификатор : 0
Формат : MPEG-4 Visual
Профиль формата : Simple@L3
Параметр BVOP формата : Нет
Параметр QPel формата : Нет
Параметр GMC формата : Без точки перехода
Параметр матрицы формата : Default (H.263)
Идентификатор кодека : XVID
Идентификатор кодека/Подсказка : XviD
Продолжительность : 47 м. 27 с.
Битрейт : 1195 Кбит/сек
Ширина : 694 пикселя
Высота : 426 пикселей
Соотношение сторон : 16:10
Частота кадров : 25,000 кадров/сек
Цветовое пространство : YUV
Субдискретизация насыщенности : 4:2:0
Битовая глубина : 8 бит
Тип развёртки : Прогрессивная
Метод сжатия : С потерями
Бит/(Пиксели*Кадры) : 0.162
Размер потока : 405 Мбайт (90%)
Библиотека кодирования : XviD 1.2.1 (UTC 2008-12-04)
Аудио
Идентификатор : 1
Формат : MPEG Audio
Версия формата : Version 1
Профиль формата : Layer 3
Идентификатор кодека : 55
Идентификатор кодека/Подсказка : MP3
Продолжительность : 47 м. 27 с.
Вид битрейта : Постоянный
Битрейт : 128 Кбит/сек
Каналы : 2 канала
Частота : 48,0 КГц
Частота кадров : 41,667 кадра/сек (1152 SPF)
Метод сжатия : С потерями
Размер потока : 43,4 Мбайт (10%)
Выравнивание : Соединение по промежуткам
Продолжительность промежутка : 40 мс. (1,00 видеокадр)
Время предзагрузки промежутка : 504 мс.
Библиотека кодирования : LAME3.92
Настройки программы : -m s -V 4 -q 2 -lowpass 13.8 -b 128
[torrents24.ru].t57062.torrent 
Торрент: Зарегистрирован [ 2018-10-03 16:55 ] · 25164517FB22D16C57EE42C727BEE027D5BF93EC

Скачать .torrent

Скачать

164 KB

Статус: проверено
Скачан: 0 раз
Размер: 32,07 GB

Профиль [ЛС]
Показать сообщения:    

Текущее время: 22-Окт 15:51

Часовой пояс: UTC + 3



Вы не можете начинать темы
Вы не можете отвечать на сообщения
Вы не можете редактировать свои сообщения
Вы не можете удалять свои сообщения
Вы не можете голосовать в опросах
Вы не можете прикреплять файлы к сообщениям
Вы можете скачивать файлы