Статистика раздачи
Размер:  745 MB   |    Зарегистрирован:  2 месяца 23 дня   |    Скачан:  1 раз

Полного источника не было: 16 часов

 
   
 
 

Dream ®

Пол:
Не указан
Стаж:
10 месяцев 15 дней
Сообщений:
752

Чертова невеста / Velnio nuotaka

Год выпуска: 1974 (по версии imdb фильм 1973 года)
Страна: СССР, "Литовская киностудия"
Жанр: Мюзикл
Продолжительность: 1:14:57
Режиссер: Арунас Жебрюнас / Arūnas Žebriūnas, композитор: Вячеслав Ганелин
В ролях: Регимантас Адомайтис /Regimantas Adomaitis/, Вайва Майнелите /Vaiva Mainelytë/, Гедиминас Гирдвайнис /Gediminas Girdvainis/, Бронюс Бабкаускас /Bronius Babkauskas/, Регина Варнайте /Regina Varnaite/, Эдгарас Савицкис /Edgaras Savitskis/...
Описание: "Чертова невеста" - первый литовский мюзикл, снятый по повести Казиса Боруты "Мельница Балтарагиса". Это рассказ о вечной борьбе добра и зла, и о победе добра и любви...
"Удивительный красочный фильм-феерия, поставленный в жанре мюзикла с чудесной музыкой и хорошими актерами. Картина была поставлена по жемчужине национальной литературной классики, повести "Мельница Балтарагиса" Казиса Боруты.
Музыку к фильму написал очень интересный композитор и джазовый пианист, создавший в 70-х очень популярное в то время на просторах СССР джазовое трио, Вячеслав Ганелин, работавший также над многими фильмами, среди которых телевизионный "Смок и Малыш", классический "Парад планет" и нашумевший в перестроечное время "Такси-блюз".
Приз Всесоюзного кинофестиваля за режиссуру (1976)"
"Идею нового фильма Жебрюнас вынашивал долго - года три. Хотелось поставить нечто сказочное, зрелищное, смешное. Окунуться в живительные воды народной традиции, фольклора. "Мельница Балтарагиса" литовского писателя К. Боруты привлекла Жебрюнаса образной системой, позаимствованной из богатых закромов фольклора. Дерзнувшие на смелый эксперимент литовские кинематографисты впервые в отечественном кино создали музыкальный фильм свежей для нас формы ритм-оперы. Предстояло освоить специфику жанра, не имевшего у нас глубоких традиций. Музыка "Чертовой невесты" вмещает в себя практически все современные ритмы. Главная трудность кинематографистов было в том, чтобы совместить безусловность зрелища с условностью музыки. Развлекая, интригуя, веселя, Жебрюнас делал ставку на самую широкую публику. «Чертовой невестой» Жебрюнасу удалось таки развеять миф о сдержанном, хладнокровном литовском характере."
Доп. информация: http://www.imdb.com/title/tt0153509/
http://www.kinopoisk.ru/film/45713/
http://www.lfc.lt/lt/Page=AMovieList&ID=333&GenreID=454&Y=1971&C=

Спойлер! - краткое описание сюжета

Однажды, когда Всевышний задремал, слушая сладкие хоралы, в раю приключился небольшой мятеж - воспользовавшись случаем, ангелы устроили пирушку с песнями и танцами, дело едва не дошло до оргии, но тут Всевышний проснулся и грозными молниями разогнал непослушных. Один из них, Пинчук, был "разжалован" в черта и попал в водоем пожилого мельника Балтарагиса. Человек и бес подписали договор: мельница будет крутится даже без ветра, в дом к мельнику придёт желанная Марцеле, но за это Балтарагис отдаст шустрому Пинчуку то, чего у него ещё нет. Марцеле умерла при родах, оставив мужу дочь Юргу, которая по договору должна была достаться черту.
Дочь мельника выросла настоящей красавицей и влюбилась в молодца Гирдвайниса, отвечавшего ей взаимностью. Юноша решил жениться на Юрге, но Пинчюк стал устраивать всевозможные каверзы, чтобы помешать жениху в день сватовства добраться до мельницы.
Не в состоянии жить без интриг, черт подговорил конокрада Рауписа украсть коней Гирдвайниса, которых тот любил больше, чем свою невесту... Балтарагис в свою очередь тоже хитрил, пытаясь подсунуть черту вместо дочери домработницу - старую деву Уршулу. Но любви Гирдвайниса и Юрги уже не вернуть... Финал фильма - иллюзия, в которую хотелось бы верить...
Примечание: Фильм не реставрирован. DVD выпущен оцифровав пленку без каких-либо коррекций. На картинке с права постоянно "плавает" черная полосочка из-за поврежденния пленки. Литовская киностудия обещает в будущем реставрировать фильм.
Мюзикл на литовском языке.

Mediainfo

General
Complete name : E:\VideoData\Europa\LT\Velnio nuotaka 1973\Velnio.nuotaka.lt.DVDRip.avi
Format : AVI
Format/Info : Audio Video Interleave
File size : 745 MiB
Duration : 1 h 14 min
Overall bit rate : 1 390 kb/s
Writing application : VirtualDubMod 1.6.0.0 SURROUND (build 2560/release)
Writing library : VirtualDubMod build 2560/release
Copyright : DVDRip by romaska
Video
ID : 0
Format : MPEG-4 Visual
Format settings, BVOP : 1
Format settings, QPel : No
Format settings, GMC : No warppoints
Format settings, Matrix : Default (H.263)
Muxing mode : Packed bitstream
Codec ID : DX50
Codec ID/Hint : DivX 5
Duration : 1 h 14 min
Bit rate : 1 124 kb/s
Nominal bit rate : 4 854 kb/s
Width : 704 pixels
Height : 304 pixels
Display aspect ratio : 2.35:1
Frame rate : 25.000 FPS
Color space : YUV
Chroma subsampling : 4:2:0
Bit depth : 8 bits
Scan type : Progressive
Compression mode : Lossy
Bits/(Pixel*Frame) : 0.210
Stream size : 603 MiB (81%)
Writing library : DivX 6.8.5 (UTC 2009-08-20)
Audio
ID : 1
Format : AC-3
Format/Info : Audio Coding 3
Format settings, Endianness : Big
Codec ID : 2000
Duration : 1 h 14 min
Bit rate mode : Constant
Bit rate : 256 kb/s
Channel(s) : 2 channels
Channel positions : Front: L R
Sampling rate : 48.0 kHz
Frame rate : 31.250 FPS (1536 spf)
Bit depth : 16 bits
Compression mode : Lossy
Stream size : 137 MiB (18%)
Alignment : Split accross interleaves
Interleave, duration : 40 ms (1.00 video frame)
Interleave, preload duratio : 500 ms
Service kind : Complete Main
Качество: DVDRip
Формат: AVI
Видео: 704 x 304, DAR 2.316 (44:19), 25.000 fps, DivX 5.x/6.x, VBR 1124 kbps, Qf 0.210
Аудио: 0x2000 (Dolby AC3), 48000Hz 256 kb/s tot, stereo (2/0)

Скриншоты


Скриншот с источника рипа VOB (сделан VLC)

Скриншот с источника рипа VOB (сделан VirtualDubMod)
Торрент файл перезалит 20-05-2017. Убран флаг "Private". За одно сделан новый рип, с более точным AR (соотношением сторон).

Параметры бывшего рипа

Качество: DVDRip
Формат: AVI
Видео: 704 x 336, DAR 2.095 (44:21), 25.000 fps, DivX 5.x/6.x, 1134 kbps, Qf 0.192
Аудио: 0x2000 (Dolby AC3), 48000Hz 256 kb/s tot, stereo (2/0)
[torrents24.ru].t56154.torrent 
Торрент: Зарегистрирован [ 2018-09-26 16:50 ] · 3085E5AC0FD489DE68922FC37B6A88800E2CB41C

Скачать .torrent

Скачать

15 KB

Статус: проверено
Скачан: 1 раз
Размер: 745 MB

Профиль [ЛС]
Показать сообщения:    

Текущее время: 19-Дек 19:23

Часовой пояс: UTC + 3



Вы не можете начинать темы
Вы не можете отвечать на сообщения
Вы не можете редактировать свои сообщения
Вы не можете удалять свои сообщения
Вы не можете голосовать в опросах
Вы не можете прикреплять файлы к сообщениям
Вы можете скачивать файлы