Статистика раздачи
Размер:  1,46 GB   |    Зарегистрирован:  4 месяца 4 дня   |    Скачан:  1 раз

Полного источника не было: 2 месяца 26 дней

 
   
 
 

RealMan ®

Пол:
Не указан
Стаж:
9 месяцев 12 дней
Сообщений:
1932

Баллада о Лефти Брауне / The Ballad of Lefty Brown
Страна: США
Студия: Higher Content, Om Films, Armian Pictures
Жанр: Вестерн, боевик, драма, приключения
Год выпуска: 2017
Продолжительность: 01:51:44
Перевод: Авторский (одноголосый закадровый) Антон Карповский
Субтитры: нет
Оригинальная аудиодорожка: нет
Режиссер: Джаред Моше / Jared Moshe
В ролях: Билл Пуллман, Кэти Бейкер, Питер Фонда, Джеймс Кэвизел, Джозеф Андерсон, Джо Андерсон, Диего Джозеф, Томми Флэнаган, Стивен Алан Седер, Тайсон Герхардт, Льюис Пуллман
Описание: В основе сценария - простоватый герой, который почти в одиночку сражается с негодяями. Лефти Браун - старик, которому за 60, косноязычный, хромой, потрёпанный жизнью герой былых времён, о котором не слагают легенд. Скоро через маленький городок, где Лефти работает на ранчо у своего друга сенатора Эдди Джонсона, будет проложена железная дорога, а дикие времена останутся в прошлом. Но тут неожиданно убивают Эдди, а вдова покойного подозревает самого Лефти в организации убийства своего мужа. Старик обещает достать настоящего убийцу, и пускается в преследование. Но как выясняется, поймать убийцу и расправиться с ним - это даже не пол- дела. Всё гораздо сложнее , драматичнее.... Лефти придётся не просто отстоять своё честное имя, и расправиться с преступниками, ему предстоит смерить новый нарождающийся мир старыми мерками Дикого Запада.
Дополнительная информация:
Автор релиза -
Заказ перевода у Антона Карповского (июль 2018) - ylnian
За сборку дороги спасибо rammzez
Источник для рипа - Blu-Ray (USA) - The.Ballad.of.Lefty.Brown.2017.BluRay.1080p.AVC.DTS-HD.MA5.1-MTeam
Рекламы нет!
Описание из рецензии Антона Карповского


Сэмпл: https://yadi.sk/i/NKRCxmrV3Z4mYW
Качество видео: BDRip
Формат видео: AVI
Видео: XviD, 720x304 (2,35:1), 23.976 fps, 1413 kbps, 0.269 bit/pixel
Аудио: Русский AC3, 48000 Гц, 6ch, 448 kbps

MediaInfo

Общее
Полное имя : D:\The.Ballad.of.Lefty.Brown.2017.BDRip-ylnian.avi
Формат : AVI
Формат/Информация : Audio Video Interleave
Размер файла : 1,46 Гбайт
Продолжительность : 1 ч. 51 м.
Общий поток : 1871 Кбит/сек
Программа кодирования : VirtualDubMod 1.5.10.3 | www.virtualdub-fr.org || (build 2550/release)
Библиотека кодирования : VirtualDubMod build 2550/release
Видео
Идентификатор : 0
Формат : MPEG-4 Visual
Профиль формата : Advanced Simple@L5
Настройки формата : BVOP1
Параметр BVOP формата : 1
Параметр QPel формата : Нет
Параметр GMC формата : Без точки перехода
Параметр матрицы формата : Default (MPEG)
Идентификатор кодека : XVID
Идентификатор кодека/Подсказка : XviD
Продолжительность : 1 ч. 51 м.
Битрейт : 1413 Кбит/сек
Ширина : 720 пикселей
Высота : 304 пикселя
Соотношение сторон : 2,35:1
Частота кадров : 23,976 (24000/1001) кадра/сек
Цветовое пространство : YUV
Субдискретизация насыщенности : 4:2:0
Битовая глубина : 8 бит
Тип развёртки : Прогрессивная
Метод сжатия : С потерями
Бит/(Пиксели*Кадры) : 0.269
Размер потока : 1,10 Гбайт (76%)
Библиотека кодирования : XviD 67
Аудио
Идентификатор : 1
Формат : AC-3
Формат/Информация : Audio Coding 3
Идентификатор кодека : 2000
Продолжительность : 1 ч. 51 м.
Вид битрейта : Постоянный
Битрейт : 448 Кбит/сек
Каналы : 6 каналов
Расположение каналов : Front: L C R, Side: L R, LFE
Частота : 48,0 КГц
Частота кадров : 31,250 кадров/сек (1536 SPF)
Битовая глубина : 16 бит
Метод сжатия : С потерями
Размер потока : 358 Мбайт (24%)
Выравнивание : Разделение по промежуткам
Продолжительность промежутка : 42 мс. (1,00 видеокадр)
Время предзагрузки промежутка : 500 мс.
Заголовок : RUS - AVO - Karpovsky
ServiceKind/String : Complete Main
[torrents24.ru].t46994.torrent 
Торрент: Зарегистрирован [ 2018-07-12 15:30 ] · A402BD6CD454AB3A83ECACF4CE14C340187798D9

Скачать .torrent

Скачать

15 KB

Статус: проверено
Скачан: 1 раз
Размер: 1,46 GB

Профиль [ЛС]
Показать сообщения:    

Текущее время: 16-Ноя 23:15

Часовой пояс: UTC + 3



Вы не можете начинать темы
Вы не можете отвечать на сообщения
Вы не можете редактировать свои сообщения
Вы не можете удалять свои сообщения
Вы не можете голосовать в опросах
Вы не можете прикреплять файлы к сообщениям
Вы можете скачивать файлы