Статистика раздачи
Размер:  441 MB   |    Зарегистрирован:  5 дней   |    Скачан:  0 раз

Полного источника не было: Никогда

 
   
 
 

Differеnt ®

Пол:
Не указан
Стаж:
5 месяцев 13 дней
Сообщений:
522

European Maxi Single Hit Collection Vol. 4
Жанр: Italo-Disco, Europop
Носитель: CDR
Страна-производитель диска (релиза): Hong Kong
Год издания: 1991
Издатель (лейбл): Discomusic Records
Аудиокодек: FLAC (*.flac)
Тип рипа: image+.cue
Битрейт аудио: lossless
Продолжительность: 01:09:20
Источник (релизер): my rip
Наличие сканов в содержимом раздачи: нет
Треклист:
1. Alice's Wonderland - Stop The Rain 5:25
2. Wilson Ferguson - Show Me 5:43
3. John John - Hey Hey Girl 6:13
4. Tato - Crazy Boy 6:39
5. Mr. Rocambole - I've Got Your Soul 6:29
6. Mike Edwards - Beat Of My Heart 6:04
7. Geraldine Cordeau - Sounds In The Night 5:31
8. Beagle Music Ltd. - Daydream 6:09
9. Del Faro - Bandiera La Playa 4:58
10. Jim Player - Run To Me 6:10
11. Grégory Ken - Prête-Moi Ton Amour 4:41
12. Kasso - Sound Of Rimini 5:17

Лог создания рипа

Exact Audio Copy V0.99 prebeta 5 from 4. May 2009
Отчёт EAC об извлечении, выполненном 1. июля 2018, 13:10
Various / European Maxi Single Hit Collection vol.4
Дисковод: TEAC CD-W552G Adapter: 0 ID: 1
Режим чтения : Достоверность
Использование точного потока : Да
Отключение кэша аудио : Да
Использование указателей C2 : Нет
Коррекция смещения при чтении : 6
Способность читать области Lead-in и Lead-out : Нет
Заполнение пропущенных сэмплов тишиной : Да
Удаление блоков с тишиной в начале и конце : Нет
При вычислениях CRC использовались нулевые сэмплы : Да
Интерфейс : Встроенный Win32-интерфейс для Win NT/2000
Выходной формат : Пользовательский кодировщик
Выбранный битрейт : 896 kBit/s
Качество : Высокий
Добавление ID3-тэга : Нет
Утилита сжатия : F:\Program\Exact Audio Copy\FLAC\FLAC.EXE
Дополнительные параметры : -6 -V -T "ARTIST=%a" -T "TITLE=%t" -T "ALBUM=%g" -T "DATE=%y" -T "TRACKNUMBER=%n" -T "GENRE=%m" -T "COMMENT=%e" %s -o %d
TOC извлечённого CD
Трек | Старт | Длительность | Начальный сектор | Конечный сектор
---------------------------------------------------------------------
1 | 0:00.00 | 5:25.40 | 0 | 24414
2 | 5:25.40 | 5:42.48 | 24415 | 50112
3 | 11:08.13 | 6:13.21 | 50113 | 78108
4 | 17:21.34 | 6:39.32 | 78109 | 108065
5 | 24:00.66 | 6:28.50 | 108066 | 137215
6 | 30:29.41 | 6:03.68 | 137216 | 164508
7 | 36:33.34 | 5:30.58 | 164509 | 189316
8 | 42:04.17 | 6:09.10 | 189317 | 217001
9 | 48:13.27 | 4:57.69 | 217002 | 239345
10 | 53:11.21 | 6:09.57 | 239346 | 267077
11 | 59:21.03 | 4:41.29 | 267078 | 288181
12 | 64:02.32 | 5:17.06 | 288182 | 311962
Характеристики диапазона извлечения и сообщения об ошибках
Выбранный диапазон
Имя файла C:\Documents and Settings\Admin\Рабочий стол\Westworld - Movers & Shakers (1991)\Various - European Maxi Single Hit Collection vol.4.wav
Пиковый уровень 100.0 %
Качество диапазона 99.9 %
CRC теста 7D5EC061
CRC копии 7D5EC061
Копирование... OK

Лог проверки качества

Started at: понедельник, 02. 07. 2018. - 0:42.30
1 file found
1 -===- C:\Documents and Settings\Admin\Рабочий стол\European Maxi Single Hit Collection vol.4 (1991)\Various - European Maxi Single Hit Collection vol.4.flac
Extracted successfully
Conclusion: this track is MPEG with probability 95%
Tempfile successfully deleted.
Finished at: понедельник, 02. 07. 2018. - 0:47.38 (operation time: 0:05.07)
[torrents24.ru].t46974.torrent 
Торрент: Зарегистрирован [ 2018-07-12 15:30 ] · 62222E121209E8E815C417618AB48B0018E68B71

Скачать .torrent

Скачать

18 KB

Статус: проверено
Скачан: 0 раз
Размер: 441 MB

Профиль [ЛС]
Показать сообщения:    

Текущее время: 17-Июл 18:08

Часовой пояс: UTC + 3



Вы не можете начинать темы
Вы не можете отвечать на сообщения
Вы не можете редактировать свои сообщения
Вы не можете удалять свои сообщения
Вы не можете голосовать в опросах
Вы не можете прикреплять файлы к сообщениям
Вы можете скачивать файлы