Статистика раздачи
Размер:  10,62 GB   |    Зарегистрирован:  4 месяца 7 дней   |    Скачан:  0 раз

Полного источника не было: Никогда

 
   
 
 

Domino ®

Пол:
Не указан
Стаж:
9 месяцев 11 дней
Сообщений:
578

Очень странные дела / Загадочные события / Stranger Things
- Год выпуска: 2016-2017
Страна: США
Жанр: Ужасы, фантастика, фэнтези, триллер, драма, детектив
Продолжительность: ~00:47:00-Перевод: Профессиональный (многоголосый закадровый) | LostFilm-Режиссёр: Мэтт Даффер, Росс Даффер, Шон Леви-В ролях: Вайнона Райдер, Дэвид Харбор, Финн Вулфард, Милли Бобби Браун, Гейтен Матараццо, Калеб МакЛафлин, Наталия Дайер, Чарли Хитон, Кара Буоно, Мэттью Модайн, Джо Кири, Роб Морган, Джон Рейнольдс, Джо Крест, Ной Шнапп, Марк Стегер, Рэндолл П. Хевенс, Катрин Дайер-Описание: Действие сериала разворачивается в 80-х годах в тихом провинциальном городке. Благоприятное течение местной жизни нарушает загадочное исчезновение подростка по имени Уилл. Выяснить обстоятельства дела полны решимости родные мальчика и местный шериф. Также события затрагивают лучшего друга Уилла — Майка. Он начинает собственное расследование. Майк уверен, что близок к разгадке, и теперь ему предстоит оказаться в эпицентре ожесточенной битвы потусторонних сил.- -

[box=#d2d2d2,#000000]Ссылка на предыдущие и альтернативные раздачи[/box]-Качество: BDRip, WEBRip (Blu-Ray.TayTO)
Формат: AVI
Видео: XviD, 704x352, 23.976 fps, ~1500 kbps
Аудио #1: 48 kHz, MPEG Layer 3, 2 ch, ~128.00 kbps | Rus
Аудио #2: 48 kHz, MPEG Layer 3, 2 ch, ~128.00 kbps | Eng
Субтитры: нет
Реклама: Отсутствует
BDRip 1 сезон, WEBRip 2 сезон-

MediaInfo

Format : AVI
Format/Info : Audio Video Interleave
File size : 605 MiB
Duration : 47 min 32 s
Overall bit rate : 1 779 kb/s
Writing application : VirtualDubMod 1.5.10.2 (build 2540/release)
Video
ID : 0
Format : MPEG-4 Visual
Format profile : Advanced Simple@L5
Format settings : BVOP1 / Custom Matrix
Format settings, BVOP : 1
Format settings, QPel : No
Format settings, GMC : No warppoints
Format settings, Matrix : Custom
Codec ID : XVID
Codec ID/Hint : XviD
Duration : 47 min 32 s
Bit rate : 1 508 kb/s
Width : 704 pixels
Height : 352 pixels
Display aspect ratio : 2.000
Frame rate : 23.976 (24000/1001) FPS
Color space : YUV
Chroma subsampling : 4:2:0
Bit depth : 8 bits
Scan type : Progressive
Compression mode : Lossy
Bits/(Pixel*Frame) : 0.254
Stream size : 513 MiB (85%)
Writing library : XviD 73
Audio #1
ID : 1
Format : MPEG Audio
Format version : Version 1
Format profile : Layer 3
Format settings : Joint stereo / MS Stereo
Codec ID : 55
Codec ID/Hint : MP3
Duration : 47 min 32 s
Bit rate mode : Constant
Bit rate : 128 kb/s
Channel(s) : 2 channels
Sampling rate : 48.0 kHz
Compression mode : Lossy
Stream size : 43.5 MiB (7%)
Alignment : Split accross interleaves
Interleave, duration : 42 ms (1.00 video frame)
Interleave, preload duratio : 500 ms
Audio #2
ID : 2
Format : MPEG Audio
Format version : Version 1
Format profile : Layer 3
Format settings : Joint stereo / MS Stereo
Codec ID : 55
Codec ID/Hint : MP3
Duration : 47 min 32 s
Bit rate mode : Constant
Bit rate : 128 kb/s
Channel(s) : 2 channels
Sampling rate : 48.0 kHz
Compression mode : Lossy
Stream size : 43.5 MiB (7%)
Alignment : Split accross interleaves
Interleave, duration : 42 ms (1.00 video frame)
Interleave, preload duratio : 500 ms

Скриншоты

-
[torrents24.ru].t46972.torrent 
Торрент: Зарегистрирован [ 2018-07-12 15:30 ] · 758D52C251B5A85A0FC4A38AB0F07B99FB3C027F

Скачать .torrent

Скачать

55 KB

Статус: проверено
Скачан: 0 раз
Размер: 10,62 GB

Профиль [ЛС]
Показать сообщения:    

Текущее время: 19-Ноя 23:04

Часовой пояс: UTC + 3



Вы не можете начинать темы
Вы не можете отвечать на сообщения
Вы не можете редактировать свои сообщения
Вы не можете удалять свои сообщения
Вы не можете голосовать в опросах
Вы не можете прикреплять файлы к сообщениям
Вы можете скачивать файлы