Статистика раздачи
Размер:  5,62 GB   |    Зарегистрирован:  5 дней   |    Скачан:  0 раз

Полного источника не было: Никогда

 
   
 
 

Армен ®

Пол:
Не указан
Стаж:
5 месяцев 8 дней
Сообщений:
194

Отставник. Позывной «бродяга»
Страна: Россия
Студия: Триикс Медиа
Жанр: боевик
Год выпуска: 2017
Продолжительность: 01:34:53
Перевод: Не требуется
Субтитры: нет
Оригинальная аудиодорожка: русский
Режиссёр: Александр Якимчук
В ролях: Игорь Бочкин, Анна Табанина, Леонид Ворон, Александр Аравушкин, Алексей Байдаков, Роман Агеев, Екатерина Кукуй, Владимир Петров, Артур Харитоненко, Сергей Интяков, Сергей Азеев, Владимир Артёмов, Елена Андреева, Никита Лейтланд, Максим Головчанов, Алёна Каримская, Юрий Загребнев, Вячеслав Аркунов, Виталий Крылов, Вячеслав Гасай, Денис Портнов, Андрей Бабенко, Сергей Шкарбан
Описание: Главный герой — подполковник на пенсии Юрий Жуковский, который живёт одинокой холостяцкой жизнью. Неожиданно её однообразие рушится, когда Жуковский встречается с бывшим начальником — генералом Терентьевым. Именно он отправляет бывшего командира спецназа в поездку в военную часть районного города Зареченска. Там ему предстоит установить причины трагедии — побега и смерти рядового солдата. Бывший полковник идёт наперекор мнению командования и комиссии, начиная собственное расследование против криминального бизнеса. Жуковский выясняет истинные мотивы побега солдата с помощью его невесты, обнаружив спрятанный телефон..

Кинопоиск
Sample
Тип релиза: HDTV 1080i - daboen
Контейнер: TS
Видео: MPEG4 AVC Video, H264, 16:9, 1920x1080, 25 fps, 7866 kbps
Аудио: Russian (MP2, 2 ch, 192 kbps, 16 bits, 48.0 KHz) - оригинал

MediaInfo

General
ID : 1 (0x1)
Complete name : D:\Otstavnik.Pozyvnoj.«brodyaga».2017.HDTV.1080i.ts
Format : MPEG-TS
File size : 5.62 GiB
Duration : 1h 34mn
Overall bit rate mode : Variable
Overall bit rate : 8 479 Kbps
Video
ID : 901 (0x385)
Menu ID : 1278 (0x4FE)
Format : AVC
Format/Info : Advanced Video Codec
Format profile : Main@L4.0
Format settings, CABAC : Yes
Format settings, ReFrames : 2 frames
Format settings, GOP : M=3, N=30
Codec ID : 27
Duration : 1h 34mn
Bit rate : 7 866 Kbps
Width : 1 920 pixels
Height : 1 080 pixels
Display aspect ratio : 16:9
Frame rate : 25.000 fps
Color space : YUV
Chroma subsampling : 4:2:0
Bit depth : 8 bits
Scan type : MBAFF
Bits/(Pixel*Frame) : 0.152
Stream size : 5.21 GiB (93%)
Color primaries : BT.709
Transfer characteristics : BT.709
Matrix coefficients : BT.709
Audio
ID : 902 (0x386)
Menu ID : 1278 (0x4FE)
Format : MPEG Audio
Format version : Version 1
Format profile : Layer 2
Codec ID : 3
Duration : 1h 34mn
Bit rate mode : Constant
Bit rate : 192 Kbps
Channel count : 2 channels
Sampling rate : 48.0 KHz
Compression mode : Lossy
Delay relative to video : -80ms
Stream size : 130 MiB (2%)
Language : Russian

Скриншоты


Все раздачи серии фильмов "Отставник" на Рутрекере
[torrents24.ru].t46930.torrent 
Торрент: Зарегистрирован [ 2018-07-12 15:30 ] · 0F5FF6BBBA5BF5CFE1DC5FEAC30FEDD764DB310E

Скачать .torrent

Скачать

29 KB

Статус: проверено
Скачан: 0 раз
Размер: 5,62 GB

Профиль [ЛС]
Показать сообщения:    

Текущее время: 17-Июл 18:05

Часовой пояс: UTC + 3



Вы не можете начинать темы
Вы не можете отвечать на сообщения
Вы не можете редактировать свои сообщения
Вы не можете удалять свои сообщения
Вы не можете голосовать в опросах
Вы не можете прикреплять файлы к сообщениям
Вы можете скачивать файлы