Статистика раздачи
Размер:  73 MB   |    Зарегистрирован:  4 месяца 7 дней   |    Скачан:  0 раз

Полного источника не было: Никогда

 
   
 
 

folk ®

Пол:
Не указан
Стаж:
8 месяцев 20 дней
Сообщений:
294

Watershed / Indigo Girl (single)
Жанр: Pop Rock
Страна-производитель диска: EU
Год издания диска: 2002
Издатель (лейбл): EMI Electrola
Номер по каталогу: 7243 550695 2 8
Страна: South Africa
Аудио кодек: FLAC (*.flac)
Тип рипа: tracks+.cue
Битрейт аудио: lossless
Продолжительность: 11:00
Источник (релизер): www.avaxhome.ws
Наличие сканов в содержимом раздачи: да
Треклист:
1 Indigo Girl 3:00
2 Yesterday Again (Remix) 3:04
3 Unsolved (For Juliet & Shannon) 4:52

Лог создания рипа

Exact Audio Copy V0.99 prebeta 5 from 4. May 2009
EAC extraction logfile from 19. November 2010, 10:19
Watershed / Indigo girl
Used drive : HL-DT-STDVDRAM GSA-H12L Adapter: 0 ID: 0
Read mode : Secure
Utilize accurate stream : Yes
Defeat audio cache : Yes
Make use of C2 pointers : No
Read offset correction : 667
Overread into Lead-In and Lead-Out : No
Fill up missing offset samples with silence : Yes
Delete leading and trailing silent blocks : No
Null samples used in CRC calculations : Yes
Used interface : Installed external ASPI interface
Gap handling : Appended to previous track
Used output format : User Defined Encoder
Selected bitrate : 1024 kBit/s
Quality : High
Add ID3 tag : No
Command line compressor : C:\Programme\FLAC\flac.exe
Additional command line options : -6 -T "Artist=%a" -T "Title=%t" -T "Album=%g" -T "Date=%y" -T "Tracknumber=%n" -T "Genre=%m" %s -o %d
TOC of the extracted CD
Track | Start | Length | Start sector | End sector
---------------------------------------------------------
1 | 0:00.00 | 3:01.42 | 0 | 13616
2 | 3:01.42 | 3:06.55 | 13617 | 27621
3 | 6:08.22 | 4:51.68 | 27622 | 49514
Track 1
Filename F:\=== VINYL RIPS ===\=== EAC===\01 Indigo girl.wav
Pre-gap length 0:00:02.00
Peak level 98.0 %
Track quality 100.0 %
Test CRC 5CC4048B
Copy CRC 5CC4048B
Accurately ripped (confidence 6) [B4FA87BC]
Copy OK
Track 2
Filename F:\=== VINYL RIPS ===\=== EAC===\02 Yesterday again (remix).wav
Pre-gap length 0:00:00.70
Peak level 98.0 %
Track quality 100.0 %
Test CRC CEABBB62
Copy CRC CEABBB62
Accurately ripped (confidence 5) [9DE85A45]
Copy OK
Track 3
Filename F:\=== VINYL RIPS ===\=== EAC===\03 Unsolved (for Juliet & Shannon).wav
Pre-gap length 0:00:00.60
Peak level 89.0 %
Track quality 99.9 %
Test CRC 7AC2612F
Copy CRC 7AC2612F
Accurately ripped (confidence 5) [EBA390F3]
Copy OK
All tracks accurately ripped
No errors occurred
End of status report

Содержание индексной карты (.CUE)

REM GENRE Pop
REM DATE 2002
REM DISCID 18029403
REM COMMENT "ExactAudioCopy v0.99pb5"
PERFORMER "Watershed"
TITLE "Indigo girl"
FILE "01 Indigo girl.wav" WAVE
TRACK 01 AUDIO
TITLE "Indigo girl"
PERFORMER "Watershed"
ISRC ZAA040000009
INDEX 01 00:00:00
TRACK 02 AUDIO
TITLE "Yesterday again (remix)"
PERFORMER "Watershed"
ISRC ZAA040000010
INDEX 00 03:00:47
FILE "02 Yesterday again (remix).wav" WAVE
INDEX 01 00:00:00
TRACK 03 AUDIO
TITLE "Unsolved (for Juliet & Shannon)"
PERFORMER "Watershed"
ISRC ZAB040100006
INDEX 00 03:05:70
FILE "03 Unsolved (for Juliet & Shannon).wav" WAVE
INDEX 01 00:00:00

Лог проверки качества

AUDIOCHECKER v2.0 beta (build 457) - by Dester - opdester@freemail.hu
~~~~~~~~~~~~~~~~~~~~~~~~~~~~~~~~~~
Started at: понедельник, 06. 12. 2010. - 22:03.33
3 files found
1 -===- D:\Loaded\Watershed - Indigo Girl (EMI Electrola 7243 5 50695 2 8) (EU 2002)\01 Indigo girl.flac
Extracted successfully
Conclusion: this track is CDDA with probability 58%
Tempfile successfully deleted.
2 -===- D:\Loaded\Watershed - Indigo Girl (EMI Electrola 7243 5 50695 2 8) (EU 2002)\02 Yesterday again (remix).flac
Extracted successfully
Conclusion: this track is CDDA with probability 100%
Tempfile successfully deleted.
3 -===- D:\Loaded\Watershed - Indigo Girl (EMI Electrola 7243 5 50695 2 8) (EU 2002)\03 Unsolved (for Juliet & Shannon).flac
Extracted successfully
Conclusion: this track is CDDA with probability 100%
Tempfile successfully deleted.
Finished at: понедельник, 06. 12. 2010. - 22:16.34 (operation time: 0:13.01)
[torrents24.ru].t46925.torrent 
Торрент: Зарегистрирован [ 2018-07-12 15:30 ] · 0E6D65A68743707FA5DC677DE81F64B55DB8D7CF

Скачать .torrent

Скачать

12 KB

Статус: проверено
Скачан: 0 раз
Размер: 73 MB

Профиль [ЛС]
Показать сообщения:    

Текущее время: 19-Ноя 22:36

Часовой пояс: UTC + 3



Вы не можете начинать темы
Вы не можете отвечать на сообщения
Вы не можете редактировать свои сообщения
Вы не можете удалять свои сообщения
Вы не можете голосовать в опросах
Вы не можете прикреплять файлы к сообщениям
Вы можете скачивать файлы