Статистика раздачи
Размер:  2,46 GB   |    Зарегистрирован:  2 месяца 13 дней   |    Скачан:  0 раз

Полного источника не было: Никогда

 
   
 
 

maria ®

Пол:
Не указан
Стаж:
7 месяцев 17 дней
Сообщений:
364

Звезды под гипнозом. Второй сезон 1 выпуск 720p
Дата/Год выпуска: 24.06.2018
Страна: Россия
Жанр: ТВ-шоу
Продолжительность: 01:29:27
Перевод: Не требуется
Телеканал: Первый канал
Описание: На "Первом канале" самое загадочное и непредсказуемое шоу "Звезды под гипнозом", в котором известные люди переживают внезапные смены настроений и кардинальные изменения в поведении. И всё это - благодаря гипнозу.
"В моей практике это первое шоу, где уснувший зритель - признак успеха!" - шутит Максим Галкин.
Гипнолог Иса Багиров заставит известных людей использовать скрытые возможности сознания. Предварительно знаменитости будут проходить специальный тест, чтобы узнать, насколько хорошо они подвержены гипнозу. Зрителям же предоставляется шанс своими глазами увидеть, как человека вводят в транс, и узнать, какие ощущения и переживания он при этом испытывает.
"Гипноз - это не полное отключение сознания, - объясняет Иса Багиров. - Наоборот, это состояние повышенной чувствительности. Люди все слышат и воспринимают гораздо тоньше, чем когда бодрствуют".
Все розыгрыши принципиально беззлобные. Они никому не принесут вреда, а лишь рассмешат самих участников и зрителей в зале. А для того чтобы у телезрителей не было никаких сомнений в том, что происходящее - чистая правда, Иса Багиров задействует зрителей из зала.
Участники программы, соглашаясь на участие в шоу, никогда не знают наперед, где они окажутся и какая роль им предстоит. В состоянии гипноза после воздействия Исы Багирова люди забывают свое имя, "теряют" нос или недосчитываются пальцев на руке. "То, что мы применяем во время съемок, - это психотехника, которая позволяет снять внутренние блоки, высвободить воображение человека, - говорит Иса Багиров. - В таком состоянии человек может верить в самые невероятные вещи, видеть то, чего нет, и вести себя самым неожиданным образом. Человек может даже на время забыть то, что, казалось, забыть невозможно!"
На эксперимент "Первого канала" отважились: Владимир Сычёв, Анастасия Спиридонова, Елена Бирюкова, Евгений Воскресенский, Сергей Писаренко, Елена Кулецкая, Виктор Чайка, Шура и другие.
качество: IPTVRip720p
формат: MP4
Видео: H264; 1280x720 (16:9); 25.000 fps; 3 800 kb/s
Аудио: AAC, 2 channels, 48000Hz, 128 Кбит/сек

MediaInfo

Общее
Полное имя : Звезды под гипнозом. 24.06.2018.mp4
Формат : MPEG-4
Профиль формата : Base Media
Идентификатор кодека : isom (isom/iso2/avc1/mp41)
Размер файла : 2,46 Гбайт
Продолжительность : 1 ч. 29 м.
Режим общего битрейта : Переменный
Общий поток : 3941 Кбит/сек
Видео
Идентификатор : 1
Формат : AVC
Формат/Информация : Advanced Video Codec
Профиль формата : High@L3.1
Настройки формата : CABAC / 4 Ref Frames
Параметр CABAC формата : Да
Параметр RefFrames формата : 4 кадра
Идентификатор кодека : avc1
Идентификатор кодека/Информация : Advanced Video Coding
Продолжительность : 1 ч. 29 м.
Продолжительность оригинала : 1 ч. 29 м.
Битрейт : 3800 Кбит/сек
Ширина : 1280 пикселей
Высота : 720 пикселей
Соотношение сторон : 16:9
Режим частоты кадров : Переменный
Частота кадров : 25,000 кадров/сек
Минимальная частота кадров : 6,250 кадров/сек
Максимальная частота кадров : 100,000 кадров/сек
Цветовое пространство : YUV
Субдискретизация насыщенности : 4:2:0
Битовая глубина : 8 бит
Тип развёртки : Прогрессивная
Бит/(Пиксели*Кадры) : 0.165
Размер потока : 2,37 Гбайт (96%)
Размер потока оригинала : 2,37 Гбайт (96%)
Библиотека кодирования : x264 core 118
mdhd_Duration : 5367600
Аудио
Идентификатор : 2
Формат : AAC
Формат/Информация : Advanced Audio Codec
Профиль формата : LC
Идентификатор кодека : mp4a-40-2
Продолжительность : 1 ч. 29 м.
Вид битрейта : Переменный
Битрейт : 128 Кбит/сек
Максимальный битрейт : 242 Кбит/сек
Каналы : 2 канала
Расположение каналов : Front: L R
Частота : 48,0 КГц
Частота кадров : 46,875 кадров/сек (1024 SPF)
Метод сжатия : С потерями
Размер потока : 81,9 Мбайт (3%)

Скриншоты

[torrents24.ru].t46808.torrent 
Торрент: Зарегистрирован [ 2018-07-11 15:40 ] · AD5437293CAB2B532D98071D705416BC14F439FB

Скачать .torrent

Скачать

13 KB

Статус: проверено
Скачан: 0 раз
Размер: 2,46 GB

Профиль [ЛС]
Показать сообщения:    

Текущее время: 25-Сен 02:05

Часовой пояс: UTC + 3



Вы не можете начинать темы
Вы не можете отвечать на сообщения
Вы не можете редактировать свои сообщения
Вы не можете удалять свои сообщения
Вы не можете голосовать в опросах
Вы не можете прикреплять файлы к сообщениям
Вы можете скачивать файлы