Статистика раздачи
Размер:  1,37 GB   |    Зарегистрирован:  7 дней   |    Скачан:  0 раз

Полного источника не было: Никогда

 
   
 
 

ingiz ®

Пол:
Не указан
Стаж:
5 месяцев 8 дней
Сообщений:
1312

В поисках одноглазого Джимми/ The Search for One-eye Jimmy- Год выпуска: 1994
Страна: США
Жанр: Комедия
Продолжительность: 01:24:44
Перевод: Профессиональный (многоголосый, закадровый)
Субтитры: Русские - вшитые, хардсаб-Режиссер: Сэм Генри Касс / Sam Henry Kass-В ролях: Майкл Бадалуччо, Рэй Манчини, Холт МакКэллэни, Николас Туртурро, Стив Бусеми, Сэмюэл Л. Джексон, Энн Мира, Тони Сирико, Дженнифер Билз, Джон Туртурро-Описание: Стилизованное под документальное авторское кино о захудалом районе Нью-Йорка построено как съемки бывшим жителем квартала такого фильма. Сюжет строится вокруг поисков пропавшего Одноглазого Джимми, обладателя стеклянного глаза, что позволяет показать целую вереницу персонажей, достойных кунсткамеры. Поражает смелость, с которой создатели фильма демонстрируют дегенератизм своих сограждан, надеясь, что масштабы идиотизма вызовут умиление у зрителей.-Качество: DVDRip
Формат: AVI
Видео кодек: XviD
Аудио кодек: AC3
Видео: 704x528 (1.33:1), 25 fps, XviD build 46 ~2108 kbps avg, 0.23 bit/pixel
Аудио: 48 kHz, AC3 Dolby Digital, 2/0 (L,R) ch, ~192.00 kbps avg

MI

Код:Формат : AVI
Формат/Информация : Audio Video Interleave
Размер файла : 1,37 Гбайт
Продолжительность : 1 ч. 24 м.
Общий поток : 2312 Кбит/сек
Название фильма : DVD_VOLUME.Title3.DVDRip
Режиссёр : ВЛАД
Программа кодирования : Lavf51.12.2
Формат оригинала/Имя : DVD_VOLUME
Видео
Идентификатор : 0
Формат : MPEG-4 Visual
Профиль формата : Simple@L3
Параметр BVOP формата : Нет
Параметр QPel формата : Нет
Параметр GMC формата : Без точки перехода
Параметр матрицы формата : Default (H.263)
Идентификатор кодека : XVID
Идентификатор кодека/Подсказка : XviD
Продолжительность : 1 ч. 24 м.
Битрейт : 2109 Кбит/сек
Ширина : 704 пикселя
Высота : 528 пикселей
Соотношение сторон : 4:3
Частота кадров : 25,000 кадров/сек
Цветовое пространство : YUV
Субдискретизация насыщенности : 4:2:0
Битовая глубина : 8 бит
Тип развёртки : Прогрессивная
Метод сжатия : С потерями
Бит/(Пиксели*Кадры) : 0.227
Размер потока : 1,25 Гбайт (91%)
Библиотека кодирования : XviD 1.1.2 (UTC 2006-11-01)
Аудио
Идентификатор : 1
Формат : AC-3
Формат/Информация : Audio Coding 3
Идентификатор кодека : 2000
Продолжительность : 1 ч. 24 м.
Вид битрейта : Постоянный
Битрейт : 192 Кбит/сек
Каналы : 2 канала
Расположение каналов : Front: L R
Частота : 48,0 КГц
Частота кадров : 31,250 кадров/сек (1536 SPF)
Битовая глубина : 16 бит
Метод сжатия : С потерями
Размер потока : 116 Мбайт (8%)
Выравнивание : Соединение по промежуткам
Продолжительность промежутка : 32 мс. (0,80 видеокадр)
Время предзагрузки промежутка : 32 мс.
ServiceKind/String : Complete Main

Скриншоты

[torrents24.ru].t46676.torrent 
Торрент: Зарегистрирован [ 2018-07-10 16:00 ] · 8F3149685D89C47522771A2D8343FD746A9CF14A

Скачать .torrent

Скачать

14 KB

Статус: проверено
Скачан: 0 раз
Размер: 1,37 GB

Профиль [ЛС]
Показать сообщения:    

Текущее время: 17-Июл 18:02

Часовой пояс: UTC + 3



Вы не можете начинать темы
Вы не можете отвечать на сообщения
Вы не можете редактировать свои сообщения
Вы не можете удалять свои сообщения
Вы не можете голосовать в опросах
Вы не можете прикреплять файлы к сообщениям
Вы можете скачивать файлы