Статистика раздачи
Размер:  2,63 GB   |    Зарегистрирован:  5 месяцев 9 дней   |    Скачан:  1 раз

Полного источника не было: 1 месяц 9 дней

 
   
 
 

Ведьмочка ®

Пол:
Не указан
Стаж:
10 месяцев 8 дней
Сообщений:
788

Под грифом «Сов. секретно»
Год выпуска: 2010
Страна: Россия
Жанр: Документальный
Продолжительность: 00:38:50
Перевод: Не требуется
Русские субтитры: есть
Режиссер: Ефим Резников
Описание: Несомненно, секретность — это необходимая система защиты государственных интересов любой страны. Но, к сожалению, у секретности есть и другая сторона. Часто за грифом «Сов. Секретно» некоторые яркие страницы истории страны и её гениальные люди остаются неизвестными и, как следствие, забытыми. Мы покажем это на примере выдающейся, но до сих пор частично засекреченной деятельности Генерального конструктора В. Н. Челомея.
Бонусы:
1. Дополнительный фильм о В.Н. Челомее (00:11:28)
2. Смотрите на DVD
Главы (разбивка по трекам): есть
Качество: DVD5
Формат: DVD Video
Видео кодек: MPEG2
Аудио кодек: AC3
Видео: NTSC 16:9 (720x480) VBR, 29.970 fps
Аудио: Russian (Dolby AC3, 2 ch) 192 Kbps, 48.0 KHz
Аудио 2: English (Dolby AC3, 2 ch) 192 Kbps, 48.0 KHz

DVDInfo

Title: Pod Grifom SS_R
Size: 2.63 Gb ( 2 760 112,00 KBytes ) - DVD-5
Enabled regions: 1, 2, 3, 4, 5, 6, 7, 8
VTS_01 :
Play Length: 00:00:25
Video: NTSC 16:9 (720x480) VBR, Auto Letterboxed
VTS_02 :
Play Length: 00:00:21
Video: NTSC 16:9 (720x480) VBR, Auto Letterboxed
Audio:
Not specified (Dolby AC3, 6 ch)
VTS_03 :
Play Length: 00:38:50
Video: NTSC 16:9 (720x480) VBR, Auto Letterboxed
Audio:
Russian (Dolby AC3, 2 ch)
Subtitles:
Russian
English
VTS_04 :
Play Length: 00:11:28
Video: NTSC 16:9 (720x480) VBR, Auto Letterboxed
Audio:
Russian (Dolby AC3, 2 ch)
Subtitles:
Russian
English
VTS_05 :
Play Length: 00:02:03
Video: NTSC 4:3 (720x480) VBR
Audio:
Russian (Dolby AC3, 6 ch)
Subtitles:
Russian
English
VTS_06 :
Play Length: 00:01:30
Video: NTSC 4:3 (720x480) VBR
Audio:
Russian (Dolby AC3, 2 ch)
Subtitles:
Russian
English
* Menus Information *
VIDEO_TS Menu
Video:
NTSC 16:9 (720x480) VBR
Auto Pan&Scan, Auto Letterboxed
English Language Unit :
Title Menu
VTS_01 Menu
Video:
NTSC 16:9 (720x480) VBR
Auto Letterboxed
Audio:
Not specified (Dolby AC3, 2 ch)
English Language Unit :
Root Menu
VTS_02 Menu
Video:
NTSC 4:3 (720x480) VBR
English Language Unit :
Root Menu
VTS_03 Menu
Video:
NTSC 4:3 (720x480) VBR
English Language Unit :
Root Menu
VTS_04 Menu
Video:
NTSC 4:3 (720x480) VBR
English Language Unit :
Root Menu
VTS_05 Menu
Video:
NTSC 4:3 (720x480) VBR
English Language Unit :
Root Menu
VTS_06 Menu
Video:
NTSC 4:3 (720x480) VBR
English Language Unit :
Root Menu

MediaInfo

General
Complete name : C:\Users\User\Documents\ISO\AnyDVD\Pod Grifom SS_R\VIDEO_TS\VIDEO_TS.BUP
Format : DVD Video
Format profile : Menu
File size : 14.0 KiB
Overall bit rate mode : Variable
FileExtension_Invalid : ifo
Video
ID : 224 (0xE0)
Format : MPEG Video
Format version : Version 2
Bit rate mode : Variable
Width : 720 pixels
Height : 480 pixels
Display aspect ratio : 16:9
Frame rate : 29.970 (29970/1000) FPS
Standard : NTSC
Compression mode : Lossy
Text
Format : RLE
Format/Info : Run-length encoding
Bit depth : 2 bits
General
Complete name : C:\Users\User\Documents\ISO\AnyDVD\Pod Grifom SS_R\VIDEO_TS\VIDEO_TS.IFO
Format : DVD Video
Format profile : Menu
File size : 14.0 KiB
Overall bit rate mode : Variable
Video
ID : 224 (0xE0)
Format : MPEG Video
Format version : Version 2
Bit rate mode : Variable
Width : 720 pixels
Height : 480 pixels
Display aspect ratio : 16:9
Frame rate : 29.970 (29970/1000) FPS
Standard : NTSC
Compression mode : Lossy
Text
Format : RLE
Format/Info : Run-length encoding
Bit depth : 2 bits
General
Complete name : C:\Users\User\Documents\ISO\AnyDVD\Pod Grifom SS_R\VIDEO_TS\VTS_01_0.BUP
Format : DVD Video
Format profile : Program
File size : 34.0 KiB
Duration : 25 s 0 ms
Overall bit rate mode : Variable
Overall bit rate : 11.1 kb/s
FileExtension_Invalid : ifo
Video
ID : 224 (0xE0)
Format : MPEG Video
Format version : Version 2
Duration : 24 s 992 ms
Bit rate mode : Variable
Width : 720 pixels
Height : 480 pixels
Display aspect ratio : 16:9
Frame rate : 29.970 (29970/1000) FPS
Standard : NTSC
Compression mode : Lossy
Audio #1
Format : AC-3
Format/Info : Audio Coding 3
Duration : 25 s 0 ms
Channel(s) : 6 channels
Sampling rate : 48.0 kHz
Compression mode : Lossy
Language : English
Audio #2
Format : AC-3
Format/Info : Audio Coding 3
Duration : 25 s 0 ms
Channel(s) : 6 channels
Sampling rate : 48.0 kHz
Compression mode : Lossy
Language : English
Audio #3
Format : AC-3
Format/Info : Audio Coding 3
Duration : 25 s 0 ms
Channel(s) : 6 channels
Sampling rate : 48.0 kHz
Compression mode : Lossy
Language : English
Audio #4
Format : AC-3
Format/Info : Audio Coding 3
Duration : 25 s 0 ms
Channel(s) : 6 channels
Sampling rate : 48.0 kHz
Compression mode : Lossy
Language : English
Audio #5
Format : AC-3
Format/Info : Audio Coding 3
Duration : 25 s 0 ms
Channel(s) : 6 channels
Sampling rate : 48.0 kHz
Compression mode : Lossy
Language : English
Audio #6
Format : AC-3
Format/Info : Audio Coding 3
Duration : 25 s 0 ms
Channel(s) : 6 channels
Sampling rate : 48.0 kHz
Compression mode : Lossy
Language : English
Audio #7
Format : AC-3
Format/Info : Audio Coding 3
Duration : 25 s 0 ms
Channel(s) : 6 channels
Sampling rate : 48.0 kHz
Compression mode : Lossy
Language : English
Audio #8
Format : AC-3
Format/Info : Audio Coding 3
Duration : 25 s 0 ms
Channel(s) : 6 channels
Sampling rate : 48.0 kHz
Compression mode : Lossy
Language : English
Text #1
Format : RLE
Format/Info : Run-length encoding
Bit depth : 2 bits
Text #2
Format : RLE
Format/Info : Run-length encoding
Bit depth : 2 bits
Text #3
Format : RLE
Format/Info : Run-length encoding
Bit depth : 2 bits
Text #4
Format : RLE
Format/Info : Run-length encoding
Bit depth : 2 bits
Text #5
Format : RLE
Format/Info : Run-length encoding
Bit depth : 2 bits
Text #6
Format : RLE
Format/Info : Run-length encoding
Bit depth : 2 bits
Text #7
Format : RLE
Format/Info : Run-length encoding
Bit depth : 2 bits
Text #8
Format : RLE
Format/Info : Run-length encoding
Bit depth : 2 bits
Text #9
Format : RLE
Format/Info : Run-length encoding
Bit depth : 2 bits
Text #10
Format : RLE
Format/Info : Run-length encoding
Bit depth : 2 bits
Text #11
Format : RLE
Format/Info : Run-length encoding
Bit depth : 2 bits
Text #12
Format : RLE
Format/Info : Run-length encoding
Bit depth : 2 bits
Text #13
Format : RLE
Format/Info : Run-length encoding
Bit depth : 2 bits
Text #14
Format : RLE
Format/Info : Run-length encoding
Bit depth : 2 bits
Text #15
Format : RLE
Format/Info : Run-length encoding
Bit depth : 2 bits
Text #16
Format : RLE
Format/Info : Run-length encoding
Bit depth : 2 bits
Text #17
Format : RLE
Format/Info : Run-length encoding
Bit depth : 2 bits
Text #18
Format : RLE
Format/Info : Run-length encoding
Bit depth : 2 bits
Text #19
Format : RLE
Format/Info : Run-length encoding
Bit depth : 2 bits
Text #20
Format : RLE
Format/Info : Run-length encoding
Bit depth : 2 bits
Text #21
Format : RLE
Format/Info : Run-length encoding
Bit depth : 2 bits
Text #22
Format : RLE
Format/Info : Run-length encoding
Bit depth : 2 bits
Text #23
Format : RLE
Format/Info : Run-length encoding
Bit depth : 2 bits
Text #24
Format : RLE
Format/Info : Run-length encoding
Bit depth : 2 bits
Text #25
Format : RLE
Format/Info : Run-length encoding
Bit depth : 2 bits
Text #26
Format : RLE
Format/Info : Run-length encoding
Bit depth : 2 bits
Text #27
Format : RLE
Format/Info : Run-length encoding
Bit depth : 2 bits
Text #28
Format : RLE
Format/Info : Run-length encoding
Bit depth : 2 bits
Text #29
Format : RLE
Format/Info : Run-length encoding
Bit depth : 2 bits
Text #30
Format : RLE
Format/Info : Run-length encoding
Bit depth : 2 bits
Text #31
Format : RLE
Format/Info : Run-length encoding
Bit depth : 2 bits
Text #32
Format : RLE
Format/Info : Run-length encoding
Bit depth : 2 bits
Menu
Duration : 25 s 0 ms
00:00:00.000 : Chapter 1
General
Complete name : C:\Users\User\Documents\ISO\AnyDVD\Pod Grifom SS_R\VIDEO_TS\VTS_01_0.IFO
Format : DVD Video
Format profile : Program
File size : 34.0 KiB
Duration : 25 s 0 ms
Overall bit rate mode : Variable
Overall bit rate : 11.1 kb/s
Video
ID : 224 (0xE0)
Format : MPEG Video
Format version : Version 2
Duration : 24 s 992 ms
Bit rate mode : Variable
Width : 720 pixels
Height : 480 pixels
Display aspect ratio : 16:9
Frame rate : 29.970 (29970/1000) FPS
Standard : NTSC
Compression mode : Lossy
Audio #1
Format : AC-3
Format/Info : Audio Coding 3
Duration : 25 s 0 ms
Channel(s) : 6 channels
Sampling rate : 48.0 kHz
Compression mode : Lossy
Language : English
Audio #2
Format : AC-3
Format/Info : Audio Coding 3
Duration : 25 s 0 ms
Channel(s) : 6 channels
Sampling rate : 48.0 kHz
Compression mode : Lossy
Language : English
Audio #3
Format : AC-3
Format/Info : Audio Coding 3
Duration : 25 s 0 ms
Channel(s) : 6 channels
Sampling rate : 48.0 kHz
Compression mode : Lossy
Language : English
Audio #4
Format : AC-3
Format/Info : Audio Coding 3
Duration : 25 s 0 ms
Channel(s) : 6 channels
Sampling rate : 48.0 kHz
Compression mode : Lossy
Language : English
Audio #5
Format : AC-3
Format/Info : Audio Coding 3
Duration : 25 s 0 ms
Channel(s) : 6 channels
Sampling rate : 48.0 kHz
Compression mode : Lossy
Language : English
Audio #6
Format : AC-3
Format/Info : Audio Coding 3
Duration : 25 s 0 ms
Channel(s) : 6 channels
Sampling rate : 48.0 kHz
Compression mode : Lossy
Language : English
Audio #7
Format : AC-3
Format/Info : Audio Coding 3
Duration : 25 s 0 ms
Channel(s) : 6 channels
Sampling rate : 48.0 kHz
Compression mode : Lossy
Language : English
Audio #8
Format : AC-3
Format/Info : Audio Coding 3
Duration : 25 s 0 ms
Channel(s) : 6 channels
Sampling rate : 48.0 kHz
Compression mode : Lossy
Language : English
Text #1
Format : RLE
Format/Info : Run-length encoding
Bit depth : 2 bits
Text #2
Format : RLE
Format/Info : Run-length encoding
Bit depth : 2 bits
Text #3
Format : RLE
Format/Info : Run-length encoding
Bit depth : 2 bits
Text #4
Format : RLE
Format/Info : Run-length encoding
Bit depth : 2 bits
Text #5
Format : RLE
Format/Info : Run-length encoding
Bit depth : 2 bits
Text #6
Format : RLE
Format/Info : Run-length encoding
Bit depth : 2 bits
Text #7
Format : RLE
Format/Info : Run-length encoding
Bit depth : 2 bits
Text #8
Format : RLE
Format/Info : Run-length encoding
Bit depth : 2 bits
Text #9
Format : RLE
Format/Info : Run-length encoding
Bit depth : 2 bits
Text #10
Format : RLE
Format/Info : Run-length encoding
Bit depth : 2 bits
Text #11
Format : RLE
Format/Info : Run-length encoding
Bit depth : 2 bits
Text #12
Format : RLE
Format/Info : Run-length encoding
Bit depth : 2 bits
Text #13
Format : RLE
Format/Info : Run-length encoding
Bit depth : 2 bits
Text #14
Format : RLE
Format/Info : Run-length encoding
Bit depth : 2 bits
Text #15
Format : RLE
Format/Info : Run-length encoding
Bit depth : 2 bits
Text #16
Format : RLE
Format/Info : Run-length encoding
Bit depth : 2 bits
Text #17
Format : RLE
Format/Info : Run-length encoding
Bit depth : 2 bits
Text #18
Format : RLE
Format/Info : Run-length encoding
Bit depth : 2 bits
Text #19
Format : RLE
Format/Info : Run-length encoding
Bit depth : 2 bits
Text #20
Format : RLE
Format/Info : Run-length encoding
Bit depth : 2 bits
Text #21
Format : RLE
Format/Info : Run-length encoding
Bit depth : 2 bits
Text #22
Format : RLE
Format/Info : Run-length encoding
Bit depth : 2 bits
Text #23
Format : RLE
Format/Info : Run-length encoding
Bit depth : 2 bits
Text #24
Format : RLE
Format/Info : Run-length encoding
Bit depth : 2 bits
Text #25
Format : RLE
Format/Info : Run-length encoding
Bit depth : 2 bits
Text #26
Format : RLE
Format/Info : Run-length encoding
Bit depth : 2 bits
Text #27
Format : RLE
Format/Info : Run-length encoding
Bit depth : 2 bits
Text #28
Format : RLE
Format/Info : Run-length encoding
Bit depth : 2 bits
Text #29
Format : RLE
Format/Info : Run-length encoding
Bit depth : 2 bits
Text #30
Format : RLE
Format/Info : Run-length encoding
Bit depth : 2 bits
Text #31
Format : RLE
Format/Info : Run-length encoding
Bit depth : 2 bits
Text #32
Format : RLE
Format/Info : Run-length encoding
Bit depth : 2 bits
Menu
Duration : 25 s 0 ms
00:00:00.000 : Chapter 1
General
Complete name : C:\Users\User\Documents\ISO\AnyDVD\Pod Grifom SS_R\VIDEO_TS\VTS_01_0.VOB
Format : MPEG-PS
File size : 196 MiB
Duration : 19 s 987 ms
Overall bit rate : 82.1 Mb/s
Video
ID : 224 (0xE0)
Format : MPEG Video
Format version : Version 2
Format profile : Main@Main
Format settings : CustomMatrix / BVOP
Format settings, BVOP : Yes
Format settings, Matrix : Custom
Format settings, GOP : Variable
Format settings, picture structure : Frame
Duration : 19 s 987 ms
Bit rate mode : Constant
Bit rate : 80.3 Mb/s
Maximum bit rate : 6 000 kb/s
Width : 720 pixels
Height : 480 pixels
Display aspect ratio : 16:9
Frame rate : 29.970 (30000/1001) FPS
Standard : NTSC
Color space : YUV
Chroma subsampling : 4:2:0
Bit depth : 8 bits
Scan type : Interlaced
Scan order : Top Field First
Compression mode : Lossy
Bits/(Pixel*Frame) : 7.750
Time code of first frame : 00:00:00:00
Time code source : Group of pictures header
GOP, Open/Closed : Open
GOP, Open/Closed of first frame : Closed
Stream size : 191 MiB (98%)
Audio
ID : 189 (0xBD)-128 (0x80)
Format : AC-3
Format/Info : Audio Coding 3
Muxing mode : DVD-Video
Duration : 19 s 968 ms
Bit rate mode : Constant
Bit rate : 192 kb/s
Channel(s) : 2 channels
Channel positions : Front: L R
Sampling rate : 48.0 kHz
Frame rate : 31.250 FPS (1536 SPF)
Bit depth : 16 bits
Compression mode : Lossy
Stream size : 468 KiB (0%)
Service kind : Complete Main
Text #1
ID : 189 (0xBD)-32 (0x20)
Format : RLE
Format/Info : Run-length encoding
Muxing mode : DVD-Video
Text #2
ID : 189 (0xBD)-33 (0x21)
Format : RLE
Format/Info : Run-length encoding
Muxing mode : DVD-Video
Menu
General
Complete name : C:\Users\User\Documents\ISO\AnyDVD\Pod Grifom SS_R\VIDEO_TS\VTS_01_1.VOB
Format : MPEG-PS
File size : 18.2 MiB
Duration : 25 s 25 ms
Overall bit rate mode : Constant
Overall bit rate : 6 104 kb/s
Video
ID : 224 (0xE0)
Format : MPEG Video
Format version : Version 2
Format profile : Main@Main
Format settings : CustomMatrix / BVOP
Format settings, BVOP : Yes
Format settings, Matrix : Custom
Format settings, GOP : M=3, N=15
Format settings, picture structure : Frame
Duration : 25 s 25 ms
Bit rate mode : Constant
Bit rate : 6 000 kb/s
Width : 720 pixels
Height : 480 pixels
Display aspect ratio : 4:3
Frame rate : 29.970 (30000/1001) FPS
Standard : NTSC
Color space : YUV
Chroma subsampling : 4:2:0
Bit depth : 8 bits
Scan type : Interlaced
Scan order : Top Field First
Compression mode : Lossy
Bits/(Pixel*Frame) : 0.579
Time code of first frame : 00:00:00;00
Time code source : Group of pictures header
GOP, Open/Closed : Open
GOP, Open/Closed of first frame : Closed
Stream size : 17.8 MiB (98%)
Menu
General
Complete name : C:\Users\User\Documents\ISO\AnyDVD\Pod Grifom SS_R\VIDEO_TS\VTS_02_0.BUP
Format : DVD Video
Format profile : Program
File size : 18.0 KiB
Duration : 21 s 700 ms
Overall bit rate mode : Variable
Overall bit rate : 6 795 b/s
FileExtension_Invalid : ifo
Video
ID : 224 (0xE0)
Format : MPEG Video
Format version : Version 2
Duration : 21 s 688 ms
Bit rate mode : Variable
Width : 720 pixels
Height : 480 pixels
Display aspect ratio : 16:9
Frame rate : 29.970 (29970/1000) FPS
Standard : NTSC
Compression mode : Lossy
Audio
ID : 128 (0x80)
Format : AC-3
Format/Info : Audio Coding 3
Duration : 21 s 700 ms
Channel(s) : 6 channels
Sampling rate : 48.0 kHz
Compression mode : Lossy
Menu
Duration : 21 s 700 ms
00:00:00.000 : Chapter 1
List (Audio) : 0
General
Complete name : C:\Users\User\Documents\ISO\AnyDVD\Pod Grifom SS_R\VIDEO_TS\VTS_02_0.IFO
Format : DVD Video
Format profile : Program
File size : 18.0 KiB
Duration : 21 s 700 ms
Overall bit rate mode : Variable
Overall bit rate : 6 795 b/s
Video
ID : 224 (0xE0)
Format : MPEG Video
Format version : Version 2
Duration : 21 s 688 ms
Bit rate mode : Variable
Width : 720 pixels
Height : 480 pixels
Display aspect ratio : 16:9
Frame rate : 29.970 (29970/1000) FPS
Standard : NTSC
Compression mode : Lossy
Audio
ID : 128 (0x80)
Format : AC-3
Format/Info : Audio Coding 3
Duration : 21 s 700 ms
Channel(s) : 6 channels
Sampling rate : 48.0 kHz
Compression mode : Lossy
Menu
Duration : 21 s 700 ms
00:00:00.000 : Chapter 1
List (Audio) : 0
General
Complete name : C:\Users\User\Documents\ISO\AnyDVD\Pod Grifom SS_R\VIDEO_TS\VTS_02_0.VOB
Format : MPEG-PS
File size : 114 KiB
Duration : 467 ms
Overall bit rate : 2 000 kb/s
Video
ID : 224 (0xE0)
Format : MPEG Video
Format version : Version 2
Format profile : Main@Main
Format settings : CustomMatrix / BVOP
Format settings, BVOP : Yes
Format settings, Matrix : Custom
Format settings, picture structure : Frame
Duration : 467 ms
Bit rate mode : Constant
Maximum bit rate : 2 000 kb/s
Width : 720 pixels
Height : 480 pixels
Display aspect ratio : 4:3
Frame rate : 29.970 (30000/1001) FPS
Standard : NTSC
Color space : YUV
Chroma subsampling : 4:2:0
Bit depth : 8 bits
Scan type : Interlaced
Scan order : Top Field First
Compression mode : Lossy
Time code of first frame : 00:00:00:01
Time code source : Group of pictures header
Text
ID : 189 (0xBD)-32 (0x20)
Format : RLE
Format/Info : Run-length encoding
Muxing mode : DVD-Video
Menu
General
Complete name : C:\Users\User\Documents\ISO\AnyDVD\Pod Grifom SS_R\VIDEO_TS\VTS_02_1.VOB
Format : MPEG-PS
File size : 17.0 MiB
Duration : 21 s 722 ms
Overall bit rate mode : Constant
Overall bit rate : 6 567 kb/s
Video
ID : 224 (0xE0)
Format : MPEG Video
Format version : Version 2
Format profile : Main@Main
Format settings : CustomMatrix / BVOP
Format settings, BVOP : Yes
Format settings, Matrix : Custom
Format settings, GOP : Variable
Format settings, picture structure : Frame
Duration : 21 s 722 ms
Bit rate mode : Constant
Bit rate : 6 000 kb/s
Width : 720 pixels
Height : 480 pixels
Display aspect ratio : 4:3
Frame rate : 29.970 (30000/1001) FPS
Standard : NTSC
Color space : YUV
Chroma subsampling : 4:2:0
Bit depth : 8 bits
Scan type : Interlaced
Scan order : Top Field First
Compression mode : Lossy
Bits/(Pixel*Frame) : 0.579
Time code of first frame : 00:00:00;00
Time code source : Group of pictures header
GOP, Open/Closed : Open
GOP, Open/Closed of first frame : Closed
Stream size : 15.5 MiB (91%)
Audio
ID : 189 (0xBD)-128 (0x80)
Format : AC-3
Format/Info : Audio Coding 3
Muxing mode : DVD-Video
Duration : 21 s 504 ms
Bit rate mode : Constant
Bit rate : 448 kb/s
Channel(s) : 6 channels
Channel positions : Front: L C R, Side: L R, LFE
Sampling rate : 48.0 kHz
Frame rate : 31.250 FPS (1536 SPF)
Bit depth : 16 bits
Compression mode : Lossy
Stream size : 1.15 MiB (7%)
Service kind : Complete Main
Menu
General
Complete name : C:\Users\User\Documents\ISO\AnyDVD\Pod Grifom SS_R\VIDEO_TS\VTS_03_0.BUP
Format : DVD Video
Format profile : Program
File size : 40.0 KiB
Duration : 38 min 50 s
Overall bit rate mode : Variable
Overall bit rate : 141 b/s
FileExtension_Invalid : ifo
Video
ID : 224 (0xE0)
Format : MPEG Video
Format version : Version 2
Duration : 38 min 50 s
Bit rate mode : Variable
Width : 720 pixels
Height : 480 pixels
Display aspect ratio : 16:9
Frame rate : 29.970 (29970/1000) FPS
Standard : NTSC
Compression mode : Lossy
Audio
ID : 128 (0x80)
Format : AC-3
Format/Info : Audio Coding 3
Duration : 38 min 50 s
Channel(s) : 2 channels
Sampling rate : 48.0 kHz
Compression mode : Lossy
Language : Russian
Text #1
ID : 32 (0x20)
Format : RLE
Format/Info : Run-length encoding
Bit depth : 2 bits
Language : Russian
Text #2
ID : 33 (0x21)
Format : RLE
Format/Info : Run-length encoding
Bit depth : 2 bits
Language : English
Menu
Duration : 38 min 50 s
00:00:00.000 : Chapter 1
00:03:39.100 : Chapter 2
00:09:35.733 : Chapter 3
00:16:15.566 : Chapter 4
00:21:12.466 : Chapter 5
00:27:21.032 : Chapter 6
00:32:20.398 : Chapter 7
00:37:46.964 : Chapter 8
List (Audio) : 0
List (Subtitles 4/3) : 0 / 0
List (Subtitles Wide) : 0 / 1
List (Subtitles Letterbox) : 0 / 1
List (Subtitles Pan&Scan) : 0 / 0
General
Complete name : C:\Users\User\Documents\ISO\AnyDVD\Pod Grifom SS_R\VIDEO_TS\VTS_03_0.IFO
Format : DVD Video
Format profile : Program
File size : 40.0 KiB
Duration : 38 min 50 s
Overall bit rate mode : Variable
Overall bit rate : 141 b/s
Video
ID : 224 (0xE0)
Format : MPEG Video
Format version : Version 2
Duration : 38 min 50 s
Bit rate mode : Variable
Width : 720 pixels
Height : 480 pixels
Display aspect ratio : 16:9
Frame rate : 29.970 (29970/1000) FPS
Standard : NTSC
Compression mode : Lossy
Audio
ID : 128 (0x80)
Format : AC-3
Format/Info : Audio Coding 3
Duration : 38 min 50 s
Channel(s) : 2 channels
Sampling rate : 48.0 kHz
Compression mode : Lossy
Language : Russian
Text #1
ID : 32 (0x20)
Format : RLE
Format/Info : Run-length encoding
Bit depth : 2 bits
Language : Russian
Text #2
ID : 33 (0x21)
Format : RLE
Format/Info : Run-length encoding
Bit depth : 2 bits
Language : English
Menu
Duration : 38 min 50 s
00:00:00.000 : Chapter 1
00:03:39.100 : Chapter 2
00:09:35.733 : Chapter 3
00:16:15.566 : Chapter 4
00:21:12.466 : Chapter 5
00:27:21.032 : Chapter 6
00:32:20.398 : Chapter 7
00:37:46.964 : Chapter 8
List (Audio) : 0
List (Subtitles 4/3) : 0 / 0
List (Subtitles Wide) : 0 / 1
List (Subtitles Letterbox) : 0 / 1
List (Subtitles Pan&Scan) : 0 / 0
General
Complete name : C:\Users\User\Documents\ISO\AnyDVD\Pod Grifom SS_R\VIDEO_TS\VTS_03_0.VOB
Format : MPEG-PS
File size : 114 KiB
Duration : 467 ms
Overall bit rate : 2 000 kb/s
Video
ID : 224 (0xE0)
Format : MPEG Video
Format version : Version 2
Format profile : Main@Main
Format settings : CustomMatrix / BVOP
Format settings, BVOP : Yes
Format settings, Matrix : Custom
Format settings, picture structure : Frame
Duration : 467 ms
Bit rate mode : Constant
Maximum bit rate : 2 000 kb/s
Width : 720 pixels
Height : 480 pixels
Display aspect ratio : 4:3
Frame rate : 29.970 (30000/1001) FPS
Standard : NTSC
Color space : YUV
Chroma subsampling : 4:2:0
Bit depth : 8 bits
Scan type : Interlaced
Scan order : Top Field First
Compression mode : Lossy
Time code of first frame : 00:00:00:01
Time code source : Group of pictures header
Text
ID : 189 (0xBD)-32 (0x20)
Format : RLE
Format/Info : Run-length encoding
Muxing mode : DVD-Video
Menu
General
Complete name : C:\Users\User\Documents\ISO\AnyDVD\Pod Grifom SS_R\VIDEO_TS\VTS_03_1.VOB
Format : MPEG-PS
File size : 1 024 MiB
Duration : 22 min 23 s
Overall bit rate : 6 395 kb/s
Video
ID : 224 (0xE0)
Format : MPEG Video
Format version : Version 2
Format profile : Main@Main
Format settings : CustomMatrix / BVOP
Format settings, BVOP : Yes
Format settings, Matrix : Custom
Format settings, GOP : Variable
Format settings, picture structure : Frame
Duration : 22 min 23 s
Bit rate mode : Constant
Bit rate : 6 000 kb/s
Width : 720 pixels
Height : 480 pixels
Display aspect ratio : 16:9
Frame rate : 29.970 (30000/1001) FPS
Standard : NTSC
Color space : YUV
Chroma subsampling : 4:2:0
Bit depth : 8 bits
Scan type : Interlaced
Scan order : Top Field First
Compression mode : Lossy
Bits/(Pixel*Frame) : 0.579
Time code of first frame : 00:01:00:00
Time code source : Group of pictures header
GOP, Open/Closed : Open
GOP, Open/Closed of first frame : Closed
Stream size : 963 MiB (94%)
Audio
ID : 189 (0xBD)-128 (0x80)
Format : AC-3
Format/Info : Audio Coding 3
Muxing mode : DVD-Video
Duration : 22 min 23 s
Bit rate mode : Constant
Bit rate : 256 kb/s
Channel(s) : 2 channels
Channel positions : Front: L R
Sampling rate : 48.0 kHz
Frame rate : 31.250 FPS (1536 SPF)
Bit depth : 16 bits
Compression mode : Lossy
Stream size : 41.0 MiB (4%)
Service kind : Complete Main
Text #1
ID : 189 (0xBD)-32 (0x20)
Format : RLE
Format/Info : Run-length encoding
Muxing mode : DVD-Video
Text #2
ID : 189 (0xBD)-33 (0x21)
Format : RLE
Format/Info : Run-length encoding
Muxing mode : DVD-Video
Menu
General
Complete name : C:\Users\User\Documents\ISO\AnyDVD\Pod Grifom SS_R\VIDEO_TS\VTS_03_2.VOB
Format : MPEG-PS
File size : 754 MiB
Duration : 16 min 29 s
Overall bit rate : 6 394 kb/s
Video
ID : 224 (0xE0)
Format : MPEG Video
Format version : Version 2
Format profile : Main@Main
Format settings : CustomMatrix / BVOP
Format settings, BVOP : Yes
Format settings, Matrix : Custom
Format settings, GOP : Variable
Format settings, picture structure : Frame
Duration : 16 min 28 s
Bit rate mode : Constant
Bit rate : 6 000 kb/s
Width : 720 pixels
Height : 480 pixels
Display aspect ratio : 16:9
Frame rate : 29.970 (30000/1001) FPS
Standard : NTSC
Color space : YUV
Chroma subsampling : 4:2:0
Bit depth : 8 bits
Scan type : Interlaced
Scan order : Top Field First
Compression mode : Lossy
Bits/(Pixel*Frame) : 0.579
Time code of first frame : 00:23:22:10
Time code source : Group of pictures header
Stream size : 708 MiB (94%)
Audio
ID : 189 (0xBD)-128 (0x80)
Format : AC-3
Format/Info : Audio Coding 3
Muxing mode : DVD-Video
Duration : 16 min 29 s
Bit rate mode : Constant
Bit rate : 256 kb/s
Channel(s) : 2 channels
Channel positions : Front: L R
Sampling rate : 48.0 kHz
Frame rate : 31.250 FPS (1536 SPF)
Bit depth : 16 bits
Compression mode : Lossy
Delay relative to video : -638 ms
Stream size : 30.2 MiB (4%)
Service kind : Complete Main
Text #1
ID : 189 (0xBD)-32 (0x20)
Format : RLE
Format/Info : Run-length encoding
Muxing mode : DVD-Video
Duration : 16 min 16 s
Delay relative to video : 1 s 101 ms
Text #2
ID : 189 (0xBD)-33 (0x21)
Format : RLE
Format/Info : Run-length encoding
Muxing mode : DVD-Video
Duration : 16 min 16 s
Delay relative to video : 1 s 101 ms
Menu
General
Complete name : C:\Users\User\Documents\ISO\AnyDVD\Pod Grifom SS_R\VIDEO_TS\VTS_04_0.BUP
Format : DVD Video
Format profile : Program
File size : 24.0 KiB
Duration : 11 min 28 s
Overall bit rate mode : Variable
Overall bit rate : 286 b/s
FileExtension_Invalid : ifo
Video
ID : 224 (0xE0)
Format : MPEG Video
Format version : Version 2
Duration : 11 min 28 s
Bit rate mode : Variable
Width : 720 pixels
Height : 480 pixels
Display aspect ratio : 16:9
Frame rate : 29.970 (29970/1000) FPS
Standard : NTSC
Compression mode : Lossy
Audio
ID : 128 (0x80)
Format : AC-3
Format/Info : Audio Coding 3
Duration : 11 min 28 s
Channel(s) : 2 channels
Sampling rate : 48.0 kHz
Compression mode : Lossy
Language : Russian
Text #1
ID : 32 (0x20)
Format : RLE
Format/Info : Run-length encoding
Bit depth : 2 bits
Language : Russian
Text #2
ID : 33 (0x21)
Format : RLE
Format/Info : Run-length encoding
Bit depth : 2 bits
Language : English
Menu
Duration : 11 min 28 s
00:00:00.000 : Chapter 1
List (Audio) : 0
List (Subtitles 4/3) : 0 / 0
List (Subtitles Wide) : 0 / 1
List (Subtitles Letterbox) : 0 / 1
List (Subtitles Pan&Scan) : 0 / 0
General
Complete name : C:\Users\User\Documents\ISO\AnyDVD\Pod Grifom SS_R\VIDEO_TS\VTS_04_0.IFO
Format : DVD Video
Format profile : Program
File size : 24.0 KiB
Duration : 11 min 28 s
Overall bit rate mode : Variable
Overall bit rate : 286 b/s
Video
ID : 224 (0xE0)
Format : MPEG Video
Format version : Version 2
Duration : 11 min 28 s
Bit rate mode : Variable
Width : 720 pixels
Height : 480 pixels
Display aspect ratio : 16:9
Frame rate : 29.970 (29970/1000) FPS
Standard : NTSC
Compression mode : Lossy
Audio
ID : 128 (0x80)
Format : AC-3
Format/Info : Audio Coding 3
Duration : 11 min 28 s
Channel(s) : 2 channels
Sampling rate : 48.0 kHz
Compression mode : Lossy
Language : Russian
Text #1
ID : 32 (0x20)
Format : RLE
Format/Info : Run-length encoding
Bit depth : 2 bits
Language : Russian
Text #2
ID : 33 (0x21)
Format : RLE
Format/Info : Run-length encoding
Bit depth : 2 bits
Language : English
Menu
Duration : 11 min 28 s
00:00:00.000 : Chapter 1
List (Audio) : 0
List (Subtitles 4/3) : 0 / 0
List (Subtitles Wide) : 0 / 1
List (Subtitles Letterbox) : 0 / 1
List (Subtitles Pan&Scan) : 0 / 0
General
Complete name : C:\Users\User\Documents\ISO\AnyDVD\Pod Grifom SS_R\VIDEO_TS\VTS_04_0.VOB
Format : MPEG-PS
File size : 114 KiB
Duration : 467 ms
Overall bit rate : 2 000 kb/s
Video
ID : 224 (0xE0)
Format : MPEG Video
Format version : Version 2
Format profile : Main@Main
Format settings : CustomMatrix / BVOP
Format settings, BVOP : Yes
Format settings, Matrix : Custom
Format settings, picture structure : Frame
Duration : 467 ms
Bit rate mode : Constant
Maximum bit rate : 2 000 kb/s
Width : 720 pixels
Height : 480 pixels
Display aspect ratio : 4:3
Frame rate : 29.970 (30000/1001) FPS
Standard : NTSC
Color space : YUV
Chroma subsampling : 4:2:0
Bit depth : 8 bits
Scan type : Interlaced
Scan order : Top Field First
Compression mode : Lossy
Time code of first frame : 00:00:00:01
Time code source : Group of pictures header
Text
ID : 189 (0xBD)-32 (0x20)
Format : RLE
Format/Info : Run-length encoding
Muxing mode : DVD-Video
Menu
General
Complete name : C:\Users\User\Documents\ISO\AnyDVD\Pod Grifom SS_R\VIDEO_TS\VTS_04_1.VOB
Format : MPEG-PS
File size : 520 MiB
Duration : 11 min 28 s
Overall bit rate : 6 330 kb/s
Video
ID : 224 (0xE0)
Format : MPEG Video
Format version : Version 2
Format profile : Main@Main
Format settings : CustomMatrix / BVOP
Format settings, BVOP : Yes
Format settings, Matrix : Custom
Format settings, GOP : Variable
Format settings, picture structure : Frame
Duration : 11 min 28 s
Bit rate mode : Constant
Bit rate : 6 000 kb/s
Width : 720 pixels
Height : 480 pixels
Display aspect ratio : 16:9
Frame rate : 29.970 (30000/1001) FPS
Standard : NTSC
Color space : YUV
Chroma subsampling : 4:2:0
Bit depth : 8 bits
Scan type : Interlaced
Scan order : Top Field First
Compression mode : Lossy
Bits/(Pixel*Frame) : 0.579
Time code of first frame : 01:00:00:00
Time code source : Group of pictures header
GOP, Open/Closed : Open
GOP, Open/Closed of first frame : Closed
Stream size : 494 MiB (95%)
Audio
ID : 189 (0xBD)-128 (0x80)
Format : AC-3
Format/Info : Audio Coding 3
Muxing mode : DVD-Video
Duration : 11 min 28 s
Bit rate mode : Constant
Bit rate : 192 kb/s
Channel(s) : 2 channels
Channel positions : Front: L R
Sampling rate : 48.0 kHz
Frame rate : 31.250 FPS (1536 SPF)
Bit depth : 16 bits
Compression mode : Lossy
Stream size : 15.8 MiB (3%)
Service kind : Complete Main
Text #1
ID : 189 (0xBD)-32 (0x20)
Format : RLE
Format/Info : Run-length encoding
Muxing mode : DVD-Video
Delay relative to video : 500 ms
Text #2
ID : 189 (0xBD)-33 (0x21)
Format : RLE
Format/Info : Run-length encoding
Muxing mode : DVD-Video
Delay relative to video : 500 ms
Menu
General
Complete name : C:\Users\User\Documents\ISO\AnyDVD\Pod Grifom SS_R\VIDEO_TS\VTS_05_0.BUP
Format : DVD Video
Format profile : Program
File size : 18.0 KiB
Duration : 2 min 3 s
Overall bit rate mode : Variable
Overall bit rate : 1 192 b/s
FileExtension_Invalid : ifo
Video
ID : 224 (0xE0)
Format : MPEG Video
Format version : Version 2
Duration : 2 min 3 s
Bit rate mode : Variable
Width : 720 pixels
Height : 480 pixels
Display aspect ratio : 4:3
Frame rate : 29.970 (29970/1000) FPS
Standard : NTSC
Compression mode : Lossy
Audio
ID : 128 (0x80)
Format : AC-3
Format/Info : Audio Coding 3
Duration : 2 min 3 s
Channel(s) : 6 channels
Sampling rate : 48.0 kHz
Compression mode : Lossy
Language : Russian
Text #1
ID : 32 (0x20)
Format : RLE
Format/Info : Run-length encoding
Bit depth : 2 bits
Language : Russian
Text #2
ID : 32 (0x20)
Format : RLE
Format/Info : Run-length encoding
Bit depth : 2 bits
Language : English
Menu
Duration : 2 min 3 s
00:00:00.000 : Chapter 1
List (Audio) : 0
List (Subtitles 4/3) : 0 / 1
List (Subtitles Wide) : 0 / 0
List (Subtitles Letterbox) : 0 / 0
List (Subtitles Pan&Scan) : 0 / 0
General
Complete name : C:\Users\User\Documents\ISO\AnyDVD\Pod Grifom SS_R\VIDEO_TS\VTS_05_0.IFO
Format : DVD Video
Format profile : Program
File size : 18.0 KiB
Duration : 2 min 3 s
Overall bit rate mode : Variable
Overall bit rate : 1 192 b/s
Video
ID : 224 (0xE0)
Format : MPEG Video
Format version : Version 2
Duration : 2 min 3 s
Bit rate mode : Variable
Width : 720 pixels
Height : 480 pixels
Display aspect ratio : 4:3
Frame rate : 29.970 (29970/1000) FPS
Standard : NTSC
Compression mode : Lossy
Audio
ID : 128 (0x80)
Format : AC-3
Format/Info : Audio Coding 3
Duration : 2 min 3 s
Channel(s) : 6 channels
Sampling rate : 48.0 kHz
Compression mode : Lossy
Language : Russian
Text #1
ID : 32 (0x20)
Format : RLE
Format/Info : Run-length encoding
Bit depth : 2 bits
Language : Russian
Text #2
ID : 32 (0x20)
Format : RLE
Format/Info : Run-length encoding
Bit depth : 2 bits
Language : English
Menu
Duration : 2 min 3 s
00:00:00.000 : Chapter 1
List (Audio) : 0
List (Subtitles 4/3) : 0 / 1
List (Subtitles Wide) : 0 / 0
List (Subtitles Letterbox) : 0 / 0
List (Subtitles Pan&Scan) : 0 / 0
General
Complete name : C:\Users\User\Documents\ISO\AnyDVD\Pod Grifom SS_R\VIDEO_TS\VTS_05_0.VOB
Format : MPEG-PS
File size : 114 KiB
Duration : 467 ms
Overall bit rate : 2 000 kb/s
Video
ID : 224 (0xE0)
Format : MPEG Video
Format version : Version 2
Format profile : Main@Main
Format settings : CustomMatrix / BVOP
Format settings, BVOP : Yes
Format settings, Matrix : Custom
Format settings, picture structure : Frame
Duration : 467 ms
Bit rate mode : Constant
Maximum bit rate : 2 000 kb/s
Width : 720 pixels
Height : 480 pixels
Display aspect ratio : 4:3
Frame rate : 29.970 (30000/1001) FPS
Standard : NTSC
Color space : YUV
Chroma subsampling : 4:2:0
Bit depth : 8 bits
Scan type : Interlaced
Scan order : Top Field First
Compression mode : Lossy
Time code of first frame : 00:00:00:01
Time code source : Group of pictures header
Text
ID : 189 (0xBD)-32 (0x20)
Format : RLE
Format/Info : Run-length encoding
Muxing mode : DVD-Video
Menu
General
Complete name : C:\Users\User\Documents\ISO\AnyDVD\Pod Grifom SS_R\VIDEO_TS\VTS_05_1.VOB
Format : MPEG-PS
File size : 97.2 MiB
Duration : 2 min 3 s
Overall bit rate : 6 586 kb/s
Video
ID : 224 (0xE0)
Format : MPEG Video
Format version : Version 2
Format profile : Main@Main
Format settings : CustomMatrix / BVOP
Format settings, BVOP : Yes
Format settings, Matrix : Custom
Format settings, GOP : Variable
Format settings, picture structure : Frame
Duration : 2 min 3 s
Bit rate mode : Constant
Bit rate : 6 000 kb/s
Width : 720 pixels
Height : 480 pixels
Display aspect ratio : 4:3
Frame rate : 29.970 (30000/1001) FPS
Standard : NTSC
Color space : YUV
Chroma subsampling : 4:2:0
Bit depth : 8 bits
Scan type : Interlaced
Scan order : Top Field First
Compression mode : Lossy
Bits/(Pixel*Frame) : 0.579
Time code of first frame : 00:03:06:13
Time code source : Group of pictures header
Stream size : 88.6 MiB (91%)
Audio
ID : 189 (0xBD)-128 (0x80)
Format : AC-3
Format/Info : Audio Coding 3
Muxing mode : DVD-Video
Duration : 2 min 3 s
Bit rate mode : Constant
Bit rate : 448 kb/s
Channel(s) : 6 channels
Channel positions : Front: L C R, Side: L R, LFE
Sampling rate : 48.0 kHz
Frame rate : 31.250 FPS (1536 SPF)
Bit depth : 16 bits
Compression mode : Lossy
Stream size : 6.61 MiB (7%)
Service kind : Complete Main
Text #1
ID : 189 (0xBD)-32 (0x20)
Format : RLE
Format/Info : Run-length encoding
Muxing mode : DVD-Video
Duration : 1 min 55 s
Delay relative to video : 66 ms
Text #2
ID : 189 (0xBD)-33 (0x21)
Format : RLE
Format/Info : Run-length encoding
Muxing mode : DVD-Video
Duration : 1 min 55 s
Delay relative to video : 66 ms
Menu
General
Complete name : C:\Users\User\Documents\ISO\AnyDVD\Pod Grifom SS_R\VIDEO_TS\VTS_06_0.BUP
Format : DVD Video
Format profile : Program
File size : 18.0 KiB
Duration : 1 min 30 s
Overall bit rate mode : Variable
Overall bit rate : 1 623 b/s
FileExtension_Invalid : ifo
Video
ID : 224 (0xE0)
Format : MPEG Video
Format version : Version 2
Duration : 1 min 30 s
Bit rate mode : Variable
Width : 720 pixels
Height : 480 pixels
Display aspect ratio : 4:3
Frame rate : 29.970 (29970/1000) FPS
Standard : NTSC
Compression mode : Lossy
Audio
ID : 128 (0x80)
Format : AC-3
Format/Info : Audio Coding 3
Duration : 1 min 30 s
Channel(s) : 2 channels
Sampling rate : 48.0 kHz
Compression mode : Lossy
Language : Russian
Text #1
ID : 32 (0x20)
Format : RLE
Format/Info : Run-length encoding
Bit depth : 2 bits
Language : Russian
Text #2
ID : 32 (0x20)
Format : RLE
Format/Info : Run-length encoding
Bit depth : 2 bits
Language : English
Menu
Duration : 1 min 30 s
00:00:00.000 : Chapter 1
List (Audio) : 0
List (Subtitles 4/3) : 0 / 1
List (Subtitles Wide) : 0 / 0
List (Subtitles Letterbox) : 0 / 0
List (Subtitles Pan&Scan) : 0 / 0
General
Complete name : C:\Users\User\Documents\ISO\AnyDVD\Pod Grifom SS_R\VIDEO_TS\VTS_06_0.IFO
Format : DVD Video
Format profile : Program
File size : 18.0 KiB
Duration : 1 min 30 s
Overall bit rate mode : Variable
Overall bit rate : 1 623 b/s
Video
ID : 224 (0xE0)
Format : MPEG Video
Format version : Version 2
Duration : 1 min 30 s
Bit rate mode : Variable
Width : 720 pixels
Height : 480 pixels
Display aspect ratio : 4:3
Frame rate : 29.970 (29970/1000) FPS
Standard : NTSC
Compression mode : Lossy
Audio
ID : 128 (0x80)
Format : AC-3
Format/Info : Audio Coding 3
Duration : 1 min 30 s
Channel(s) : 2 channels
Sampling rate : 48.0 kHz
Compression mode : Lossy
Language : Russian
Text #1
ID : 32 (0x20)
Format : RLE
Format/Info : Run-length encoding
Bit depth : 2 bits
Language : Russian
Text #2
ID : 32 (0x20)
Format : RLE
Format/Info : Run-length encoding
Bit depth : 2 bits
Language : English
Menu
Duration : 1 min 30 s
00:00:00.000 : Chapter 1
List (Audio) : 0
List (Subtitles 4/3) : 0 / 1
List (Subtitles Wide) : 0 / 0
List (Subtitles Letterbox) : 0 / 0
List (Subtitles Pan&Scan) : 0 / 0
General
Complete name : C:\Users\User\Documents\ISO\AnyDVD\Pod Grifom SS_R\VIDEO_TS\VTS_06_0.VOB
Format : MPEG-PS
File size : 114 KiB
Duration : 467 ms
Overall bit rate : 2 000 kb/s
Video
ID : 224 (0xE0)
Format : MPEG Video
Format version : Version 2
Format profile : Main@Main
Format settings : CustomMatrix / BVOP
Format settings, BVOP : Yes
Format settings, Matrix : Custom
Format settings, picture structure : Frame
Duration : 467 ms
Bit rate mode : Constant
Maximum bit rate : 2 000 kb/s
Width : 720 pixels
Height : 480 pixels
Display aspect ratio : 4:3
Frame rate : 29.970 (30000/1001) FPS
Standard : NTSC
Color space : YUV
Chroma subsampling : 4:2:0
Bit depth : 8 bits
Scan type : Interlaced
Scan order : Top Field First
Compression mode : Lossy
Time code of first frame : 00:00:00:01
Time code source : Group of pictures header
Text
ID : 189 (0xBD)-32 (0x20)
Format : RLE
Format/Info : Run-length encoding
Muxing mode : DVD-Video
Menu
General
Complete name : C:\Users\User\Documents\ISO\AnyDVD\Pod Grifom SS_R\VIDEO_TS\VTS_06_1.VOB
Format : MPEG-PS
File size : 68.6 MiB
Duration : 1 min 30 s
Overall bit rate : 6 328 kb/s
Video
ID : 224 (0xE0)
Format : MPEG Video
Format version : Version 2
Format profile : Main@Main
Format settings : CustomMatrix / BVOP
Format settings, BVOP : Yes
Format settings, Matrix : Custom
Format settings, GOP : M=3, N=15
Format settings, picture structure : Frame
Duration : 1 min 30 s
Bit rate mode : Constant
Bit rate : 6 000 kb/s
Width : 720 pixels
Height : 480 pixels
Display aspect ratio : 4:3
Frame rate : 29.970 (30000/1001) FPS
Standard : NTSC
Color space : YUV
Chroma subsampling : 4:2:0
Bit depth : 8 bits
Scan type : Interlaced
Scan order : Top Field First
Compression mode : Lossy
Bits/(Pixel*Frame) : 0.579
Time code of first frame : 01:28:05:00
Time code source : Group of pictures header
GOP, Open/Closed : Open
GOP, Open/Closed of first frame : Closed
Stream size : 65.2 MiB (95%)
Audio
ID : 189 (0xBD)-128 (0x80)
Format : AC-3
Format/Info : Audio Coding 3
Muxing mode : DVD-Video
Duration : 1 min 30 s
Bit rate mode : Constant
Bit rate : 192 kb/s
Channel(s) : 2 channels
Channel positions : Front: L R
Sampling rate : 48.0 kHz
Frame rate : 31.250 FPS (1536 SPF)
Bit depth : 16 bits
Compression mode : Lossy
Stream size : 2.08 MiB (3%)
Service kind : Complete Main
Text #1
ID : 189 (0xBD)-32 (0x20)
Format : RLE
Format/Info : Run-length encoding
Muxing mode : DVD-Video
Duration : 1 min 26 s
Delay relative to video : 600 ms
Text #2
ID : 189 (0xBD)-33 (0x21)
Format : RLE
Format/Info : Run-length encoding
Muxing mode : DVD-Video
Duration : 1 min 26 s
Delay relative to video : 600 ms
Menu

Скриншоты меню

Скриншоты доп. материалов

[torrents24.ru].t46451.torrent 
Торрент: Зарегистрирован [ 2018-07-07 16:00 ] · 6C9CC9C0814FA5897F4C1BBC9D566E8AB232FE0D

Скачать .torrent

Скачать

28 KB

Статус: проверено
Скачан: 1 раз
Размер: 2,63 GB

Профиль [ЛС]
Показать сообщения:    

Текущее время: 16-Дек 19:25

Часовой пояс: UTC + 3



Вы не можете начинать темы
Вы не можете отвечать на сообщения
Вы не можете редактировать свои сообщения
Вы не можете удалять свои сообщения
Вы не можете голосовать в опросах
Вы не можете прикреплять файлы к сообщениям
Вы можете скачивать файлы