Статистика раздачи
Размер:  6,66 GB   |    Зарегистрирован:  2 месяца 19 дней   |    Скачан:  0 раз

Полного источника не было: Никогда

 
   
 
 

RealMan ®

Пол:
Не указан
Стаж:
7 месяцев 19 дней
Сообщений:
1713

Flamenco, Flamenco
Страна: Испания
Жанр: Flamenco, Documentary
Продолжительность: 01:40:14
Год выпуска: 2012
Лейбл: General de Produssiones y Dizeño
Режиссер и сценарий: Carlos Saura
Описание: Сара Барас, Пако Де Лючия, Мигель Кармона Хосе в фильме Карлоса Саура "Фламенко, фламенко".
Со времен постановки "Кармен" имя Карлоса Сауры не покидает списков великих режиссеров всех времен и народов. Карлос Саура навсегда занял почетное место в истории кино, соединив живопись, музыку и кинематограф.
"Фламенко, фламенко" - новый фильм мастера, где историю фламенко воссоздают гениальные танцоры Сара Барас и Хосе Мигель Кармона. Безусловным украшением фильма, как и в постановке "Кармен", стало участие Пако де Лусия, одного из самых известных в мире испанских гитаристов - исполнителей фламенко.
Треклист:
1. Rumba
2. Alegría
3. Soleá Por Bulerías
4. Cartagenera Y Bulerías
5. Garrotín
6. Copla Por Bulería
7. Soleá
8. Saeta
9. Marcha Processional
10. Martinete Y Toná
11. Bulería
12. Silencio
13. Guajira
14. Alegría
15. Tangos
16. El Tiempo
17. La Leyenda Del Tiempo
18. Cancióm De Cuna
19. Zapateao
20. Bulería Por Soleá
21. Bulería De Jerez
Источник Flamenco, Flamenco [2012, Flamenco, Documentary, Blu-ray 1080p]
Разбивка на главы по трекам: есть
Качество : BDRip 1080p
Формат: MKV
Видео кодек: H.264
Аудио кодек: DTS
Видео: AVC, 1920x1032 (1.860), 24.000 fps, 8 000 Kbps
Аудио#1: DTS, 48.0 KHz, 6 ch, 1 510 Kbps

Mediainfo/x264Log

x264Log

[Information] [27.02.2018 1:02:32] Standard error stream
-[Information] [27.02.2018 1:04:06] raw [info]: 1920x1032p 1:1 @ 24/1 fps (cfr)
-[Information] [27.02.2018 1:04:06] x264 [info]: using SAR=1/1
-[Information] [27.02.2018 1:04:06] x264 [info]: using cpu capabilities: MMX2 SSE2Fast SSSE3 SSE4.2 AVX
-[Information] [27.02.2018 1:04:06] x264 [info]: profile High, level 4.1
-[Information] [27.02.2018 16:01:45] x264 [info]: frame I:694 Avg QP:15.53 size:220302
-[Information] [27.02.2018 16:01:45] x264 [info]: frame P:34539 Avg QP:18.74 size: 79678
-[Information] [27.02.2018 16:01:45] x264 [info]: frame B:109111 Avg QP:21.04 size: 28490
-[Information] [27.02.2018 16:01:45] x264 [info]: consecutive B-frames: 3.6% 4.5% 13.0% 11.3% 7.5% 57.5% 1.0% 0.1% 0.4% 0.2% 0.8%
-[Information] [27.02.2018 16:01:45] x264 [info]: mb I I16..4: 10.3% 71.8% 17.9%
-[Information] [27.02.2018 16:01:45] x264 [info]: mb P I16..4: 1.5% 10.5% 2.2% P16..4: 31.7% 35.4% 9.2% 1.4% 0.2% skip: 7.9%
-[Information] [27.02.2018 16:01:45] x264 [info]: mb B I16..4: 0.2% 2.1% 0.4% B16..8: 38.2% 20.1% 2.4% direct: 4.5% skip:32.1% L0:45.5% L1:45.1% BI: 9.4%
-[Information] [27.02.2018 16:01:45] x264 [info]: 8x8 transform intra:75.4% inter:65.6%
-[Information] [27.02.2018 16:01:45] x264 [info]: direct mvs spatial:98.4% temporal:1.6%
-[Information] [27.02.2018 16:01:45] x264 [info]: coded y,uvDC,uvAC intra: 83.2% 82.6% 53.6% inter: 19.6% 28.9% 6.4%
-[Information] [27.02.2018 16:01:45] x264 [info]: i16 v,h,dc,p: 43% 9% 5% 44%
-[Information] [27.02.2018 16:01:45] x264 [info]: i8 v,h,dc,ddl,ddr,vr,hd,vl,hu: 20% 5% 7% 8% 11% 14% 11% 14% 10%
-[Information] [27.02.2018 16:01:45] x264 [info]: i4 v,h,dc,ddl,ddr,vr,hd,vl,hu: 39% 4% 5% 6% 9% 13% 8% 11% 7%
-[Information] [27.02.2018 16:01:45] x264 [info]: i8c dc,h,v,p: 36% 20% 25% 18%
-[Information] [27.02.2018 16:01:45] x264 [info]: Weighted P-Frames: Y:4.0% UV:2.2%
-[Information] [27.02.2018 16:01:45] x264 [info]: ref P L0: 54.5% 8.9% 25.0% 10.6% 1.0% 0.0%
-[Information] [27.02.2018 16:01:45] x264 [info]: ref B L0: 85.7% 11.6% 2.7%
-[Information] [27.02.2018 16:01:45] x264 [info]: ref B L1: 95.3% 4.7%
-[Information] [27.02.2018 16:01:45] x264 [info]: kb/s:7998.89
-[Information] [27.02.2018 16:01:45] encoded 144344 frames, 2.68 fps, 7998.89 kb/s
General
Unique ID : 172376589004125795601859939988782681351 (0x81AE8600A6BA4535AADABA7BE92F8D07)
Complete name : G:\Flamenco, Flamenco.BDRip1080p.mkv
Format : Matroska
Format version : Version 2
File size : 6.66 GiB
Duration : 1 h 40 min
Overall bit rate : 9 510 kb/s
Movie name : Flamenco, Flamenco.BDRip1080p @ rutracker.org
Encoded date : UTC 2018-02-28 19:08:48
Writing application : mkvmerge v9.8.0 ('Kuglblids') 64bit
Writing library : libebml v1.3.4 + libmatroska v1.4.5
Video
ID : 1
Format : AVC
Format/Info : Advanced Video Codec
Format profile : High@L4.1
Format settings : CABAC / 4 Ref Frames
Format settings, CABAC : Yes
Format settings, ReFrames : 4 frames
Codec ID : V_MPEG4/ISO/AVC
Duration : 1 h 40 min
Bit rate : 8 000 kb/s
Width : 1 920 pixels
Height : 1 032 pixels
Display aspect ratio : 1.85:1
Frame rate mode : Constant
Frame rate : 24.000 FPS
Color space : YUV
Chroma subsampling : 4:2:0
Bit depth : 8 bits
Scan type : Progressive
Bits/(Pixel*Frame) : 0.168
Stream size : 5.60 GiB (84%)
Title : anbelk27 @ rutracker.org
Writing library : x264 core 152 r2851 ba24899
Encoding settings : cabac=1 / ref=4 / deblock=1:-1:-2 / analyse=0x3:0x133 / me=umh / subme=11 / psy=1 / psy_rd=1.13:0.08 / mixed_ref=1 / me_range=32 / chroma_me=1 / trellis=2 / 8x8dct=1 / cqm=0 / deadzone=21,11 / fast_pskip=1 / chroma_qp_offset=-3 / threads=6 / lookahead_threads=1 / sliced_threads=0 / nr=0 / decimate=1 / interlaced=0 / bluray_compat=0 / constrained_intra=0 / bframes=10 / b_pyramid=2 / b_adapt=2 / b_bias=0 / direct=3 / weightb=1 / open_gop=0 / weightp=2 / keyint=240 / keyint_min=24 / scenecut=50 / intra_refresh=0 / rc_lookahead=80 / rc=2pass / mbtree=1 / bitrate=8000 / ratetol=1.0 / qcomp=0.60 / qpmin=0 / qpmax=69 / qpstep=4 / cplxblur=20.0 / qblur=0.5 / vbv_maxrate=50000 / vbv_bufsize=62500 / nal_hrd=none / filler=0 / ip_ratio=1.40 / aq=1:1.00
Default : Yes
Forced : No
Audio
ID : 2
Format : DTS
Format/Info : Digital Theater Systems
Codec ID : A_DTS
Duration : 1 h 40 min
Bit rate mode : Constant
Bit rate : 1 509 kb/s
Channel(s) : 6 channels
Channel positions : Front: L C R, Side: L R, LFE
Sampling rate : 48.0 kHz
Frame rate : 93.750 FPS (512 SPF)
Bit depth : 16 bits
Compression mode : Lossy
Stream size : 1.06 GiB (16%)
Title : DTS 5.1 @ 16 bit
Default : Yes
Forced : No
Menu
00:00:00.000 : en: Intro
00:02:51.000 : en: 1. Rumba
00:05:25.500 : en: 2. Alegría
00:10:58.417 : en: 3. Soleá Por Bulerías
00:14:46.000 : en: 4. Cartagenera Y Bulerías
00:19:49.583 : en: 5. Garrotín
00:24:27.625 : en: 6. Copla Por Bulería
00:27:52.625 : en: 7. Soleá
00:32:35.375 : en: 8. Saeta
00:34:32.375 : en: 9. Marcha Processional
00:37:36.833 : en: 10. Martinete Y Toná
00:40:41.375 : en: 11. Bulería
00:42:50.875 : en: 12. Silencio
00:48:18.625 : en: 13. Guajira
00:52:33.125 : en: 14. Alegría
00:57:12.458 : en: 15. Tangos
01:02:24.083 : en: 16. El Tiempo
01:06:57.875 : en: 17. La Leyenda Del Tiempo
01:10:54.958 : en: 18. Cancióm De Cuna
01:16:06.625 : en: 19. Zapateao
01:22:34.417 : en: 20. Bulería Por Soleá
01:29:51.542 : en: 21. Bulería De Jerez

Скриншоты

[torrents24.ru].t46099.torrent 
Торрент: Зарегистрирован [ 2018-07-04 15:55 ] · E16404B219E1689D2515FBA46F452398F9BBDDCE

Скачать .torrent

Скачать

34 KB

Статус: проверено
Скачан: 0 раз
Размер: 6,66 GB

Профиль [ЛС]
Показать сообщения:    

Текущее время: 24-Сен 14:02

Часовой пояс: UTC + 3



Вы не можете начинать темы
Вы не можете отвечать на сообщения
Вы не можете редактировать свои сообщения
Вы не можете удалять свои сообщения
Вы не можете голосовать в опросах
Вы не можете прикреплять файлы к сообщениям
Вы можете скачивать файлы