Статистика раздачи
Размер:  927 MB   |    Зарегистрирован:  3 месяца 18 дней   |    Скачан:  0 раз

Полного источника не было: Никогда

 
   
 
 

Ueee ®

Пол:
Не указан
Стаж:
8 месяцев 13 дней
Сообщений:
854

Ветер шумит в тополях
Название театра: Государственный академический театр имени Евг. Вахтангова
Жанр: комедия
Год выпуска: 2011
Продолжительность: 01:19:18 + 00:46:13
Режиссёр: Римас Туминас
В ролях: Рене — Владимир Симонов
Густав — Владимир Вдовиченков
Фернан — Максим Суханов
Описание: Они ежедневно собираются на террасе дома. У каждого свое прошлое, но их неотвратимо тянет друг к другу, обсуждают новости, балагурят, шумят, строят фантастические планы. Они уже немолоды, хотя и не похожи на уходящую натуру. Жизнь будоражит их, мешает унынью. А прихватившие болячки лишь повод для самоиронии.
Историю трех чудаков поведают замечательные актеры – В. Вдовиченков, М. Суханов, В. Симонов в постановке Р. Туминаса, чья режиссура – то живопись, то графика, которую он творит вместе с актерами, а когда работа закончена – уходит и картина – спектакль начинает самостоятельную жизнь. Так и в этой работе, они ищут ответы на вопросы о вечности, гордости, любви, сострадании и в этой многокрасочности заключена мощная энергетика, которая, надеемся, перехлестнет через рампу и захватит зрителей.
Доп. информация:
Запись потока *.ts со спутника Intelsat-15 / Horizons 2, 85.2° в.д., ремукс в *.mkv программой VideoReDo.
Семпл: http://multi-up.com/1202793
Качество видео: DVB
Формат видео: MKV
Видео: Advanced Video Codec, 1040x576 (16:9), 25,000 кадров/сек, 892 Кбит/сек
Аудио: MPEG Audio, 48,0 КГц, 160 Кбит/сек, 2 канала

MediaInfo

Общее
Уникальный идентификатор : 145996334783789074818798672204949879969 (0x6DD5DF0D10578C53BD28FEA510CBFCA1)
Полное имя : D:\Torrent\ВЕТЕР ШУМИТ В ТОПОЛЯХ\ВЕТЕР ШУМИТ В ТОПОЛЯХ 1 (Театр).mkv
Формат : Matroska
Версия формата : Version 2
Размер файла : 589 Мбайт
Продолжительность : 1 ч. 19 м.
Общий поток : 1039 Кбит/сек
Программа кодирования : Lavf52.64.2
Библиотека кодирования : Lavf52.64.2
Видео
Идентификатор : 1
Формат : AVC
Формат/Информация : Advanced Video Codec
Профиль формата : Main@L3
Параметр CABAC формата : Да
Параметр ReFrames формата : 3 кадра
Идентификатор кодека : V_MPEG4/ISO/AVC
Продолжительность : 1 ч. 19 м.
Битрейт : 858 Кбит/сек
Ширина : 720 пикселей
Высота : 576 пикселей
Соотношение сторон : 16:9
Соотношение сторон в оригинале : 16:9
Режим частоты кадров : Постоянный
Частота кадров : 25,000 кадров/сек
Стандарт вещания : Component
Цветовое пространство : YUV
Субдискретизация насыщенности : 4:2:0
Битовая глубина : 8 бит
Тип развёртки : Чересстрочная
Метод сохранения типа развёртки : Раздельные поля
Порядок развёртки : Верхнее поле первое
Бит/(Пиксели*Кадры) : 0.083
Размер потока : 487 Мбайт (83%)
Default : Да
Forced : Нет
Цветовой диапазон : Limited
Основные цвета : BT.601 PAL
Характеристики трансфера : BT.470 System B, BT.470 System G
Коэффициенты матрицы : BT.601
Аудио
Идентификатор : 2
Формат : MPEG Audio
Версия формата : Version 1
Профиль формата : Layer 2
Идентификатор кодека : A_MPEG/L2
Идентификатор кодека/Подсказка : MP2
Продолжительность : 1 ч. 19 м.
Вид битрейта : Постоянный
Битрейт : 160 Кбит/сек
Каналы : 2 канала
Частота : 48,0 КГц
Метод сжатия : С потерями
Размер потока : 90,8 Мбайт (15%)
Язык : Russian
Default : Да
Forced : Нет
Общее
Уникальный идентификатор : 20482110013746352761776731584866143875 (0xF68B5FD8A5D35CD8B814DAC0009CE83)
Полное имя : D:\Torrent\ВЕТЕР ШУМИТ В ТОПОЛЯХ\ВЕТЕР ШУМИТ В ТОПОЛЯХ 2 (Театр).mkv
Формат : Matroska
Версия формата : Version 2
Размер файла : 338 Мбайт
Продолжительность : 46 м. 13 с.
Общий поток : 1023 Кбит/сек
Программа кодирования : Lavf52.64.2
Библиотека кодирования : Lavf52.64.2
Видео
Идентификатор : 1
Формат : AVC
Формат/Информация : Advanced Video Codec
Профиль формата : Main@L3
Параметр CABAC формата : Да
Параметр ReFrames формата : 3 кадра
Идентификатор кодека : V_MPEG4/ISO/AVC
Продолжительность : 46 м. 13 с.
Битрейт : 842 Кбит/сек
Ширина : 720 пикселей
Высота : 576 пикселей
Соотношение сторон : 16:9
Соотношение сторон в оригинале : 16:9
Режим частоты кадров : Постоянный
Частота кадров : 25,000 кадров/сек
Стандарт вещания : Component
Цветовое пространство : YUV
Субдискретизация насыщенности : 4:2:0
Битовая глубина : 8 бит
Тип развёртки : Чересстрочная
Метод сохранения типа развёртки : Раздельные поля
Порядок развёртки : Верхнее поле первое
Бит/(Пиксели*Кадры) : 0.081
Размер потока : 279 Мбайт (82%)
Default : Да
Forced : Нет
Цветовой диапазон : Limited
Основные цвета : BT.601 PAL
Характеристики трансфера : BT.470 System B, BT.470 System G
Коэффициенты матрицы : BT.601
Аудио
Идентификатор : 2
Формат : MPEG Audio
Версия формата : Version 1
Профиль формата : Layer 2
Идентификатор кодека : A_MPEG/L2
Идентификатор кодека/Подсказка : MP2
Продолжительность : 46 м. 13 с.
Вид битрейта : Постоянный
Битрейт : 160 Кбит/сек
Каналы : 2 канала
Частота : 48,0 КГц
Метод сжатия : С потерями
Размер потока : 52,9 Мбайт (16%)
Язык : Russian
Default : Да
Forced : Нет

Скриншот с названием постановки

Скриншоты

[torrents24.ru].t46029.torrent 
Торрент: Зарегистрирован [ 2018-07-03 16:50 ] · 67CE167C9345DE87566BB740D9F6C9018B2E4999

Скачать .torrent

Скачать

19 KB

Статус: проверено
Скачан: 0 раз
Размер: 927 MB

Профиль [ЛС]
Показать сообщения:    

Текущее время: 22-Окт 15:54

Часовой пояс: UTC + 3



Вы не можете начинать темы
Вы не можете отвечать на сообщения
Вы не можете редактировать свои сообщения
Вы не можете удалять свои сообщения
Вы не можете голосовать в опросах
Вы не можете прикреплять файлы к сообщениям
Вы можете скачивать файлы