Статистика раздачи
Размер:  52,12 GB   |    Зарегистрирован:  3 месяца 9 дней   |    Скачан:  0 раз

Полного источника не было: Никогда

 
   
 
 

Dream ®

Пол:
Не указан
Стаж:
7 месяцев 20 дней
Сообщений:
579

Спаси и сохрани, Святой Георгий (международная версия) / Salve Jorge(Internacional)
Год выпуска: 2012
Страна: Бразилия
Производство: Rede Globo
Жанр: Драма
Серии (количество): 99-139 (139)
Продолжительность: ~ 00:45:00 / каждая серия
Перевод: профессиональный многоголосый закадровый (канал Ю)
Субтитры: нет
Режиссёр: Маркос Шехтман / Marcos Schechtman, Фред Майринк / Fred Mayrink
В ролях: Нанда Коста, Родригу Ломбарди, Клаудиа Райя, Джованна Антонелли, Вера Фишер, Антонио Каллони, Стениу Гарсиа, Нивеа Мария, Далтон Виг, Бруна Маркезини, Каролина Дикманн, Каку Сиоклер, Зезе Полесса, Летисия Шпиллер, Одион Вагнер, Наталия ду Вале, Нисетти Бруну, Кристиана Оливейра, Ана Беатрис Ногейра, Палома Бернанрди и др.
Описание: Сценаристка Глория Перес вновь обратилась к своей любимой, культурной, теме. Местом действия стала Турция, а точнее - регион Каппадокия. По легенде, именно здесь родился Святой Георгий Победоносец, который и дал название теленовелле. Именно к нему обращаются герои этой истории. Ведь по сюжету главная героиня попадает в настоящее рабство. Как известно, Глория Перес старается в каждом своем телесериале освещать актуальные социальные проблемы. На этот раз сценаристка решила обратиться к проблеме международной работорговли и незаконному трафику людей.
Доп. информация: Первая часть сериала здесь http://rutracker.org/forum/viewtopic.php?t=5505485
Сэмпл: http://multi-up.com/1182567
Качество: HDTVRip (720p)
Формат: MKV
Видео кодек: MPEG4
Аудио кодек: MP3
Видео: 1280х720(16:9) 23.976 fps, 3 425 Kbps, 0.155 bit/pixel
Аудио: 48 kHz, MP3, 2 ch, ~256 Kbps
Реклама: нет

MI

General
Unique ID: 21133597716476149930627353721506236806 (0xFE62ED067340232F1718BACEF4E0986)
Complete name: L:\Salve Jorge 2\Salve Jorge capitulo 99.mkv
Format: Matroska
Format version: Version 4 / Version 2
File size: 1.28 GiB
Duration : 48mn 37s
Overall bit rate : 3 756 Kbps
Writing application : Lavf57.25.100
Writing library : Lavf57.25.100
Video
ID : 1
Format : MPEG-4 Visual
Format profile : Simple@L3
Format settings, BVOP : No
Format settings, QPel : No
Format settings, GMC : No warppoints
Format settings, Matrix : Default (H.263)
Codec ID : V_MPEG4/ISO/ASP
Codec ID/Info : Advanced Simple Profile
Duration : 48mn 37s
Bit rate : 3 425 Kbps
Width : 1 280 pixels
Height : 720 pixels
Display aspect ratio : 16:9
Frame rate mode : Constant
Frame rate : 23.976 fps
Color space : YUV
Chroma subsampling : 4:2:0
Bit depth : 8 bits
Scan type : Progressive
Compression mode : Lossy
Bits/(Pixel*Frame) : 0.155
Stream size : 1.16 GiB (91%)
Writing library : XviD 67
Default : Yes
Forced : No
DURATION : 00:48:37.621000000
Audio
ID : 2
Format : MPEG Audio
Format version : Version 1
Format profile : Layer 3
Mode : Joint stereo
Mode extension : MS Stereo
Codec ID : A_MPEG/L3
Codec ID/Hint : MP3
Duration : 48mn 37s
Bit rate mode : Constant
Bit rate : 256 Kbps
Channel count : 2 channels
Sampling rate : 48.0 KHz
Compression mode : Lossy
Delay relative to video : -273ms
Stream size : 89.0 MiB (7%)
Writing library : Lavc57.24.102 libmp3lame
Default : Yes
Forced : No
DURATION : 00:48:37.569000000

Скриншоты

Предыдущие и альтернативные раздачи
[torrents24.ru].t43885.torrent 
Торрент: Зарегистрирован [ 2018-06-15 16:15 ] · 1B005DB6FB9B8D925A3703EF5A6E57C8906BDE7A

Скачать .torrent

Скачать

526 KB

Статус: проверено
Скачан: 0 раз
Размер: 52,12 GB

Профиль [ЛС]
Показать сообщения:    

Текущее время: 25-Сен 02:57

Часовой пояс: UTC + 3



Вы не можете начинать темы
Вы не можете отвечать на сообщения
Вы не можете редактировать свои сообщения
Вы не можете удалять свои сообщения
Вы не можете голосовать в опросах
Вы не можете прикреплять файлы к сообщениям
Вы можете скачивать файлы