Статистика раздачи
Размер:  2,25 GB   |    Зарегистрирован:  3 месяца 11 дней   |    Скачан:  1 раз

Полного источника не было: 1 месяц 25 дней

 
   
 
 

Zlo ®

Пол:
Не указан
Стаж:
7 месяцев 20 дней
Сообщений:
619

Малыши-грузовички (Tiny Trucks)- Страна: США (Россия?)
Студия: Amuse Network, Kopin Film
Жанр: детский, развивающий
Продолжительность: ~00.04.00
Год выпуска: 2016-2018
Возраст: 0+
Сюжет фильма:
Малыши-грузовички – это обучающий мультик для детей про стройку с краном по имени Чарли, бульдозером Билли и экскаватором Эдом. Персонажи строят разные конструкции из составных частей. В процессе они играют и веселятся, учат цвета и фигуры.
-Качество видео: WEBRip 1080p
Формат файла: mkv
1-37
Видео: кодек: AVC, размер кадра: 1920x1080 (16:9), битрейт: ~1500...600 кб/с, частота кадров: ~24 кадра/сек
Аудио #1: язык: русский, частота дискретизации: 44100 Гц, аудиокодек: AAC, 2 ch, битрейт аудио: 126 кб/с
Аудио #2: язык: английский, частота дискретизации: 44100 Гц, аудиокодек: AAC, 2 ch, битрейт аудио: 126 кб/с
Аудио #3: язык: без озвучки, частота дискретизации: 44100 Гц, аудиокодек: AAC, 2 ch, битрейт аудио: 126 кб/с *
*отсутствует на данный момент в сериях 2, 3, 12, 21, 22, 36.
37-...
Видео: кодек: AVC, размер кадра: 1920x1080 (16:9), битрейт: ~900 кб/с, частота кадров: ~25 кадров/сек
Аудио: язык: без озвучки, частота дискретизации: 44100 Гц, аудиокодек: AAC, 2 ch, битрейт аудио: 126 кб/с-

Список серий

  • Дом (The House)
  • Рампа (The Ramp)
  • Садим деревья (Planting Trees)
  • Гоночная трасса (The Racing Track)
  • Смешивание цветов (Mixing Colors)
  • Пожарная машина (The Fire Truck)
  • Машина сахарной ваты (The Cotton Candy Truck)
  • Грузовик с мороженым (The Ice Cream Truck)
  • Грузовик со жвачкой (The Gumball Truck)
  • Колесо обозрения (The Ferris Wheels)
  • Американские горки (The Roller Coaster)
  • Бассейн с шариками (The Ball Pit)
  • Бамперные машинки (The Bumper Cars)
  • Карусель (Pendulum Ride)
  • Пиратский корабль (The Pirate Ship)
  • Замок с привидениями (The Haunted Castle)
  • Шоколадная фабрика (The Chocolate Factory)
  • Снеговик и огромная горка (Snowman and Giant Sledge Slide)
  • Готовимся к Рождеству (Christmas Preparations)
  • Замок с катапультой (Castle & Catapult)
  • Автомойка (The Car Wash)
  • Магазин сладостей (The Candy Shop)
  • Футбольное поле (The Football Field)
  • Пейнтбол (The Paintball Shooting Range)
  • Гигантские качели (The Giant Swing)
  • Большие мыльные пузыри (Foam Cannon & Big Bubbles)
  • Аквариум (The Aquarium)
  • Домик на дереве (The Tree Shed)
  • НЛО (The Ovni)
  • Космический корабль (The Space Ship)
  • Луноход (The Moon Vehicle)
  • Воздушный шар (Hot Air Balloon)
  • Подводные лодки (The Submarines)
  • Больница (The Hospital)
  • Игра в прятки (Hide And Seek)
  • Кинотеатр (The Cinema)
  • Киностудия (Build a Film Studio)
  • Пицца (Pizza)
  • День рождения (The Birthday Cake)
  • Комната страха (The Fear Room)
  • Сладость или гадость (Trick or Treat)
  • Маленькие детективы (Tiny Detectives)
  • Завод сока (The Juice Factory)
  • Мост (The Bridge Across the River)
  • На ферме (The Farm)
  • Волшебное представление (The Magic Show)
  • Ресторан (The Restaurant)
  • После торнадо (The Storm)
  • Рождество (Christmas)
  • Волшебная страна (Wonderland)
  • Подготовка к вечеринке (The Party)
  • Сновидения (Dreaming)
  • На пляже (The Beach Party)
  • Северный полюс (The North Pole)
  • Железнодорожная станция (The Railway Station)
  • Сбор грибов (Mushroom Picking)
  • Гараж (The Garage)
  • Дельтаплан (The Hang-Glider)
  • Кегельбан (The Bowling Alley)
  • Бейсбольное поле (Baseball Field)
  • Любовь (Love)
  • Детский лагерь (Fun Ball Pool)
  • MediaInfo

    Общее
    Уникальный идентификатор : 178917913943824716580164551876029256442 (0x869A5638DD1AD2145458C11A2BE912FA)
    Полное имя : \Маленький город и грузовички (Tiny Town & Tiny Trucks)\Малыши-грузовички (Tiny Trucks)\004 Tiny Trucks - Гоночная трасса (The Racing Track).mkv
    Формат : Matroska
    Версия формата : Version 4 / Version 2
    Размер файла : 50,8 Мбайт
    Продолжительность : 4 м. 18 с.
    Общий поток : 1652 Кбит/сек
    Дата кодирования : UTC 2018-04-21 12:00:00
    Программа кодирования : mkvmerge v22.0.0 ('At The End Of The World') 64-bit
    Библиотека кодирования : libebml v1.3.5 + libmatroska v1.4.8
    Видео
    Идентификатор : 1
    Формат : AVC
    Формат/Информация : Advanced Video Codec
    Профиль формата : High@L4
    Настройки формата : CABAC / 3 Ref Frames
    Параметр CABAC формата : Да
    Параметр RefFrames формата : 3 кадра
    Идентификатор кодека : V_MPEG4/ISO/AVC
    Продолжительность : 4 м. 17 с.
    Битрейт : 1272 Кбит/сек
    Ширина : 1920 пикселей
    Высота : 1080 пикселей
    Соотношение сторон : 16:9
    Режим частоты кадров : Постоянный
    Частота кадров : 24,000 кадра/сек
    Цветовое пространство : YUV
    Субдискретизация насыщенности : 4:2:0
    Битовая глубина : 8 бит
    Тип развёртки : Прогрессивная
    Бит/(Пиксели*Кадры) : 0.026
    Размер потока : 39,1 Мбайт (77%)
    Язык : English
    Default : Да
    Forced : Нет
    Цветовой диапазон : Limited
    Основные цвета : BT.709
    Характеристики трансфера : BT.709
    Коэффициенты матрицы : BT.709
    Аудио #1
    Идентификатор : 2
    Формат : AAC
    Формат/Информация : Advanced Audio Codec
    Профиль формата : LC
    Идентификатор кодека : A_AAC-2
    Продолжительность : 4 м. 17 с.
    Битрейт : 126 Кбит/сек
    Каналы : 2 канала
    Расположение каналов : Front: L R
    Частота : 44,1 КГц
    Частота кадров : 43,066 кадра/сек (1024 SPF)
    Метод сжатия : С потерями
    Размер потока : 3,86 Мбайт (8%)
    Язык : Russian
    Default : Да
    Forced : Нет
    Аудио #2
    Идентификатор : 3
    Формат : AAC
    Формат/Информация : Advanced Audio Codec
    Профиль формата : LC
    Идентификатор кодека : A_AAC-2
    Продолжительность : 4 м. 17 с.
    Битрейт : 126 Кбит/сек
    Каналы : 2 канала
    Расположение каналов : Front: L R
    Частота : 44,1 КГц
    Частота кадров : 43,066 кадра/сек (1024 SPF)
    Метод сжатия : С потерями
    Размер потока : 3,86 Мбайт (8%)
    Язык : English
    Default : Нет
    Forced : Нет
    Аудио #3
    Идентификатор : 4
    Формат : AAC
    Формат/Информация : Advanced Audio Codec
    Профиль формата : LC
    Идентификатор кодека : A_AAC-2
    Продолжительность : 4 м. 18 с.
    Битрейт : 126 Кбит/сек
    Каналы : 2 канала
    Расположение каналов : Front: L R
    Частота : 44,1 КГц
    Частота кадров : 43,066 кадра/сек (1024 SPF)
    Метод сжатия : С потерями
    Размер потока : 3,86 Мбайт (8%)
    Заголовок : без озвучки - no voice
    Язык : zxx
    Default : Нет
    Forced : Нет-Общее
    Уникальный идентификатор : 191268923244940785434384149017037439618 (0x8FE50DFEE80C27172137D765617D0282)
    Полное имя : \Маленький город и грузовички (Tiny Town & Tiny Trucks)\Малыши-грузовички (Tiny Trucks)\039 Tiny Trucks - День рождения (The Birthday Cake).mkv
    Формат : Matroska
    Версия формата : Version 4 / Version 2
    Размер файла : 26,8 Мбайт
    Продолжительность : 3 м. 31 с.
    Общий поток : 1065 Кбит/сек
    Дата кодирования : UTC 2018-04-22 05:38:05
    Программа кодирования : mkvmerge v22.0.0 ('At The End Of The World') 64-bit
    Библиотека кодирования : libebml v1.3.5 + libmatroska v1.4.8
    Видео
    Идентификатор : 1
    Формат : AVC
    Формат/Информация : Advanced Video Codec
    Профиль формата : High@L4
    Настройки формата : CABAC / 3 Ref Frames
    Параметр CABAC формата : Да
    Параметр RefFrames формата : 3 кадра
    Идентификатор кодека : V_MPEG4/ISO/AVC
    Продолжительность : 3 м. 31 с.
    Битрейт : 937 Кбит/сек
    Ширина : 1920 пикселей
    Высота : 1080 пикселей
    Соотношение сторон : 16:9
    Режим частоты кадров : Постоянный
    Частота кадров : 25,000 кадров/сек
    Цветовое пространство : YUV
    Субдискретизация насыщенности : 4:2:0
    Битовая глубина : 8 бит
    Тип развёртки : Прогрессивная
    Бит/(Пиксели*Кадры) : 0.018
    Размер потока : 23,6 Мбайт (88%)
    Язык : English
    Default : Да
    Forced : Нет
    Цветовой диапазон : Limited
    Основные цвета : BT.709
    Характеристики трансфера : BT.709
    Коэффициенты матрицы : BT.709
    Аудио
    Идентификатор : 2
    Формат : AAC
    Формат/Информация : Advanced Audio Codec
    Профиль формата : LC
    Идентификатор кодека : A_AAC-2
    Продолжительность : 3 м. 31 с.
    Битрейт : 126 Кбит/сек
    Каналы : 2 канала
    Расположение каналов : Front: L R
    Частота : 44,1 КГц
    Частота кадров : 43,066 кадра/сек (1024 SPF)
    Метод сжатия : С потерями
    Размер потока : 3,17 Мбайт (12%)
    Заголовок : без озвучки - no voice
    Язык : zxx
    Default : Да
    Forced : Нет

    Скриншоты

    Источники

    Learn with Dino (youtube) - английский канал
    Динозаврик Дино (youtube) - русский канал
    Tiny World (youtube) - канал, где выходят новые серии
    Нумерация серий приблизительная согласно появлению на каналах в youtube.

    Внимание! Раздача ведётся путём добавления новых выпусков.

    Раздача ведётся путём добавления новых выпусков. При каждом добавлении создётся новый торрент. Чтобы начать докачку новой серии, пользователям необходимо сделать следующее:
    (1) остановить скачивание,
    (2) удалить старый торрент у себя из клиента (старые серии удалять не надо),
    (3) скачать новый торрент и запустить его у себя в клиенте вместо старого, при этом указать клиенту путь в старую папку куда и должно происходить скачивание новых серий.
    Ваш клиент при этом должен произвести хеширование (проверку) старой папки (если не производит сам - помогите ему сделать это), и будет докачивать только те серии которых у вас ещё нет. Старые серии при этом не удаляются, а продолжают раздаваться!
    Eсли вы уже удалили старые серии, то предотвратить повторную закачку старых серий можно, отжав галочку в соответсвующих местах при запуске нового торрента.
    [torrents24.ru].t42842.torrent 
    Торрент: Зарегистрирован [ 2018-06-13 11:20 ] · 069D67A5E86CA6E9CB052C787C7740C7D9BA453F

    Скачать .torrent

    Скачать

    18 KB

    Статус: проверено
    Скачан: 1 раз
    Размер: 2,25 GB

    Профиль [ЛС]
    Показать сообщения:    

    Текущее время: 24-Сен 14:53

    Часовой пояс: UTC + 3



    Вы не можете начинать темы
    Вы не можете отвечать на сообщения
    Вы не можете редактировать свои сообщения
    Вы не можете удалять свои сообщения
    Вы не можете голосовать в опросах
    Вы не можете прикреплять файлы к сообщениям
    Вы можете скачивать файлы