Статистика раздачи
Размер:  626 MB   |    Зарегистрирован:  2 месяца 29 дней   |    Скачан:  0 раз

Полного источника не было: Никогда

 
   
 
 

тошик ®

Пол:
Не указан
Стаж:
5 месяцев 14 дней
Сообщений:
184

Joe Bonamassa - British Blues Explosion ~ Live
Жанр: Blues, Blues-Rock
Страна-производитель диска: USA
Год издания диска: 2018
Издатель (лейбл): J&R Adventures
Номер по каталогу: JRA58241
Страна: USA
Аудио кодек: FLAC (*.flac)
Тип рипа: tracks+.cue
Битрейт аудио: lossless
Продолжительность: 01:36:58
Источник (релизер): zoan2013
Наличие сканов в содержимом раздачи: да
Official Trailer
Треклист:

CD1 (00:48:04)

01. Beck's Bolero/Rice Pudding
02. Mainline Florida
03. Boogie With Stu
04. Let Me Love You Baby
05. Plynth (Water Down The Drain)
06. Spanish Boots
07. Double Crossing Time
08. Motherless Children

Лог создания рипа

Exact Audio Copy V1.3 from 2. September 2016
EAC extraction logfile from 14. May 2018, 19:34
Joe Bonamassa / British Blues Explosion Live Disc 1
Used drive : HL-DT-STBD-RE WH16NS40 Adapter: 1 ID: 0
Read mode : Secure
Utilize accurate stream : Yes
Defeat audio cache : Yes
Make use of C2 pointers : No
Read offset correction : 6
Overread into Lead-In and Lead-Out : No
Fill up missing offset samples with silence : Yes
Delete leading and trailing silent blocks : No
Null samples used in CRC calculations : Yes
Used interface : Native Win32 interface for Win NT & 2000
Gap handling : Appended to previous track
Used output format : User Defined Encoder
Selected bitrate : 1024 kBit/s
Quality : High
Add ID3 tag : No
Command line compressor : C:\My Downloads\FLAC Codec for EAC\flac-1.3.2-win\win64\flac.exe
Additional command line options : -8 -e -p -V -T "ARTIST=%artist%" -T "TITLE=%title%" -T "ALBUM=%albumtitle%" -T "DATE=%year%" -T "TRACKNUMBER=%tracknr%" -T "GENRE=%genre%" -T "PERFORMER=%albuminterpret%" -T "COMPOSER=%composer%" %haslyrics%--tag-from-file=LYRICS="%lyricsfile%"%haslyrics% -T "ALBUMARTIST=%albumartist%" -T "DISCNUMBER=%cdnumber%" -T "TOTALDISCS=%totalcds%" -T "TOTALTRACKS=%numtracks%" -T "COMMENT=%comment%" %source% -o %dest%
TOC of the extracted CD
Track | Start | Length | Start sector | End sector
---------------------------------------------------------
1 | 0:00.00 | 9:01.14 | 0 | 40588
2 | 9:01.14 | 7:01.13 | 40589 | 72176
3 | 16:02.27 | 4:17.17 | 72177 | 91468
4 | 20:19.44 | 5:35.72 | 91469 | 116665
5 | 25:55.41 | 4:05.08 | 116666 | 135048
6 | 30:00.49 | 4:04.01 | 135049 | 153349
7 | 34:04.50 | 7:32.29 | 153350 | 187278
8 | 41:37.04 | 6:27.24 | 187279 | 216327
Track 1
Filename D:\Torrents\Joe Bonamassa - British Blues Explosion Live [FLAC]\Disc 01\01 - Beck's Bolero,Rice Pudding.wav
Pre-gap length 0:00:02.00
Peak level 100.0 %
Extraction speed 3.7 X
Track quality 100.0 %
Test CRC F4577D67
Copy CRC F4577D67
Track not present in AccurateRip database
Copy OK
Track 2
Filename D:\Torrents\Joe Bonamassa - British Blues Explosion Live [FLAC]\Disc 01\02 - Maineline Florida.wav
Peak level 100.0 %
Extraction speed 1.4 X
Track quality 100.0 %
Test CRC B1C3E8D6
Copy CRC B1C3E8D6
Track not present in AccurateRip database
Copy OK
Track 3
Filename D:\Torrents\Joe Bonamassa - British Blues Explosion Live [FLAC]\Disc 01\03 - Boogie With Stu.wav
Peak level 100.0 %
Extraction speed 1.4 X
Track quality 100.0 %
Test CRC E7438846
Copy CRC E7438846
Track not present in AccurateRip database
Copy OK
Track 4
Filename D:\Torrents\Joe Bonamassa - British Blues Explosion Live [FLAC]\Disc 01\04 - Let Me Love You Baby.wav
Peak level 100.0 %
Extraction speed 1.4 X
Track quality 99.9 %
Test CRC B606B364
Copy CRC B606B364
Track not present in AccurateRip database
Copy OK
Track 5
Filename D:\Torrents\Joe Bonamassa - British Blues Explosion Live [FLAC]\Disc 01\05 - Plynth (Water Down the Drain).wav
Peak level 100.0 %
Extraction speed 1.6 X
Track quality 100.0 %
Test CRC 86FCE0A5
Copy CRC 86FCE0A5
Track not present in AccurateRip database
Copy OK
Track 6
Filename D:\Torrents\Joe Bonamassa - British Blues Explosion Live [FLAC]\Disc 01\06 - Spanish Boots.wav
Peak level 100.0 %
Extraction speed 1.5 X
Track quality 99.9 %
Test CRC 1923FF24
Copy CRC 1923FF24
Track not present in AccurateRip database
Copy OK
Track 7
Filename D:\Torrents\Joe Bonamassa - British Blues Explosion Live [FLAC]\Disc 01\07 - Double Crossing Time.wav
Peak level 100.0 %
Extraction speed 1.9 X
Track quality 100.0 %
Test CRC ECF0AA33
Copy CRC ECF0AA33
Track not present in AccurateRip database
Copy OK
Track 8
Filename D:\Torrents\Joe Bonamassa - British Blues Explosion Live [FLAC]\Disc 01\08 - Motherless Children.wav
Peak level 100.0 %
Extraction speed 2.0 X
Track quality 100.0 %
Test CRC 789F4044
Copy CRC 789F4044
Track not present in AccurateRip database
Copy OK
None of the tracks are present in the AccurateRip database
No errors occurred
End of status report
---- CUETools DB Plugin V2.1.6
[CTDB TOCID: ParVPf6if6E9A165k1Ym05FatJM-] found
Submit result: ParVPf6if6E9A165k1Ym05FatJM- has been confirmed
Track | CTDB Status
1 | (3/3) Accurately ripped
2 | (3/3) Accurately ripped
3 | (3/3) Accurately ripped
4 | (3/3) Accurately ripped
5 | (3/3) Accurately ripped
6 | (3/3) Accurately ripped
7 | (3/3) Accurately ripped
8 | (3/3) Accurately ripped
==== Log checksum 03062416C89FE86B8669119F2ECEE46FDDE91C4884753063A6BE5B5A4D7C3D0C ====

Содержание индексной карты (.CUE)

REM GENRE Blues
REM DATE 2018
REM DISCID 680B4408
REM COMMENT "ExactAudioCopy v1.3"
CATALOG 0804879582410
PERFORMER "Joe Bonamassa"
TITLE "British Blues Explosion Live Disc 1"
REM COMPOSER ""
FILE "01 - Beck's Bolero,Rice Pudding.wav" WAVE
TRACK 01 AUDIO
TITLE "Beck's Bolero/Rice Pudding"
PERFORMER "Joe Bonamassa"
REM COMPOSER ""
ISRC USMH51800769
INDEX 01 00:00:00
FILE "02 - Maineline Florida.wav" WAVE
TRACK 02 AUDIO
TITLE "Maineline Florida"
PERFORMER "Joe Bonamassa"
REM COMPOSER ""
ISRC USMH51800770
INDEX 01 00:00:00
FILE "03 - Boogie With Stu.wav" WAVE
TRACK 03 AUDIO
TITLE "Boogie With Stu"
PERFORMER "Joe Bonamassa"
REM COMPOSER ""
ISRC USMH51800771
INDEX 01 00:00:00
FILE "04 - Let Me Love You Baby.wav" WAVE
TRACK 04 AUDIO
TITLE "Let Me Love You Baby"
PERFORMER "Joe Bonamassa"
REM COMPOSER ""
ISRC USMH51800772
INDEX 01 00:00:00
FILE "05 - Plynth (Water Down the Drain).wav" WAVE
TRACK 05 AUDIO
TITLE "Plynth (Water Down the Drain)"
PERFORMER "Joe Bonamassa"
REM COMPOSER ""
ISRC USMH51800773
INDEX 01 00:00:00
FILE "06 - Spanish Boots.wav" WAVE
TRACK 06 AUDIO
TITLE "Spanish Boots"
PERFORMER "Joe Bonamassa"
REM COMPOSER ""
ISRC USMH51800774
INDEX 01 00:00:00
FILE "07 - Double Crossing Time.wav" WAVE
TRACK 07 AUDIO
TITLE "Double Crossing Time"
PERFORMER "Joe Bonamassa"
REM COMPOSER ""
ISRC USMH51800775
INDEX 01 00:00:00
FILE "08 - Motherless Children.wav" WAVE
TRACK 08 AUDIO
TITLE "Motherless Children"
PERFORMER "Joe Bonamassa"
REM COMPOSER ""
ISRC USMH51800776
INDEX 01 00:00:00

Лог проверки качества

-----------------------
DON'T MODIFY THIS FILE
-----------------------
PERFORMER: auCDtect Task Manager, ver. 1.5.1RC4 build 1.5.1.5
Copyright (c) 2008-2010 y-soft. All rights reserved
http://y-soft.org
ANALYZER: auCDtect: CD records authenticity detector, version 0.8.2
Copyright (c) 2004 Oleg Berngardt. All rights reserved.
Copyright (c) 2004 Alexander Djourik. All rights reserved.
FILE: 08 - Motherless Children.flac
Size: 42521379 Hash: 405F7C8A4C4FB1F6CE06F44018511F36 Accuracy: -m0
Conclusion: CDDA 62%
Signature: E5A36E9A018E4692C6A153E702F059A33E14A793
FILE: 07 - Double Crossing Time.flac
Size: 50186374 Hash: 57A7EB990F6D6973B1569E16CF73D07F Accuracy: -m0
Conclusion: CDDA 43%
Signature: 80DEF264ADCCAE9ECBAB6A88F1A4903ECC46761E
FILE: 06 - Spanish Boots.flac
Size: 28109965 Hash: D380D82B9B70DB59B0E1C67DDC5D100B Accuracy: -m0
Conclusion: MPEG 95%
Signature: 7ED55E1CFABCB483B03312B244B2F20E91F69F81
FILE: 05 - Plynth (Water Down the Drain).flac
Size: 29000720 Hash: 25FC5DA6BD7C4E74B4288AAC9F97DF2A Accuracy: -m0
Conclusion: CDDA 100%
Signature: FF2240A7444750D2761D022380EE3EE7A99C09AE
FILE: 04 - Let Me Love You Baby.flac
Size: 36181821 Hash: 236296474E0229A0CEDC2D2F1CAA5ACD Accuracy: -m0
Conclusion: CDDA 54%
Signature: 624265AE67DFE6C80F69BCD6E659295ABAD1086B
FILE: 03 - Boogie With Stu.flac
Size: 27750440 Hash: 8C93CD257E185B8134BEFB00C1AB7E1B Accuracy: -m0
Conclusion: CDDA 100%
Signature: 12989D60ED76F1D730C6B8C003B1CE88CC8C6021
FILE: 02 - Maineline Florida.flac
Size: 47267019 Hash: E84A245AB1A8E4AB4C59BD0D644C8078 Accuracy: -m0
Conclusion: CDDA 100%
Signature: 6F163C0CA7E9C617FBB87F9EC2853BD4A442504D
FILE: 01 - Beck's Bolero,Rice Pudding.flac
Size: 59781109 Hash: B0470E33AFDF3863B1B64F1195B7206C Accuracy: -m0
Conclusion: CDDA 99%
Signature: 7676BECA4B9D4CB36CB405961A98731CEEB077D6

Замер динамического диапазона

foobar2000 1.3.9 / Замер динамического диапазона (DR) 1.1.1
Дата отчёта: 2018-05-15 17:30:39
--------------------------------------------------------------------------------
Анализ: Joe Bonamassa / British Blues Explosion Live Disc 1
--------------------------------------------------------------------------------
DR Пики RMS Продолжительность трека
--------------------------------------------------------------------------------
DR8 0.00 дБ -9.73 дБ 9:01 01-Beck's Bolero/Rice Pudding
DR9 0.00 дБ -9.91 дБ 7:01 02-Maineline Florida
DR8 0.00 дБ -9.27 дБ 4:17 03-Boogie With Stu
DR8 0.00 дБ -10.20 дБ 5:36 04-Let Me Love You Baby
DR8 0.00 дБ -9.20 дБ 4:05 05-Plynth (Water Down the Drain)
DR8 0.00 дБ -9.00 дБ 4:04 06-Spanish Boots
DR8 0.00 дБ -9.73 дБ 7:32 07-Double Crossing Time
DR7 0.00 дБ -8.42 дБ 6:27 08-Motherless Children
--------------------------------------------------------------------------------
Количество треков: 8
Реальные значения DR: DR8
Частота: 44100 Гц
Каналов: 2
Разрядность: 16
Битрейт: 875 кбит/с
Кодек: FLAC
================================================================================

CD2 (00:48:53)

01. SWLABR
02. Tea For One/I Can't Quit You Baby
03. Little Girl
04. Pretending
05. Black Winter/Django
06. How Many More Times

Лог создания рипа

Exact Audio Copy V1.3 from 2. September 2016
EAC extraction logfile from 14. May 2018, 20:38
Joe Bonamassa / British Blues Explosion Live Disc 2
Used drive : HL-DT-STBD-RE WH16NS40 Adapter: 1 ID: 0
Read mode : Secure
Utilize accurate stream : Yes
Defeat audio cache : Yes
Make use of C2 pointers : No
Read offset correction : 6
Overread into Lead-In and Lead-Out : No
Fill up missing offset samples with silence : Yes
Delete leading and trailing silent blocks : No
Null samples used in CRC calculations : Yes
Used interface : Native Win32 interface for Win NT & 2000
Gap handling : Appended to previous track
Used output format : User Defined Encoder
Selected bitrate : 1024 kBit/s
Quality : High
Add ID3 tag : No
Command line compressor : C:\My Downloads\FLAC Codec for EAC\flac-1.3.2-win\win64\flac.exe
Additional command line options : -8 -e -p -V -T "ARTIST=%artist%" -T "TITLE=%title%" -T "ALBUM=%albumtitle%" -T "DATE=%year%" -T "TRACKNUMBER=%tracknr%" -T "GENRE=%genre%" -T "PERFORMER=%albuminterpret%" -T "COMPOSER=%composer%" %haslyrics%--tag-from-file=LYRICS="%lyricsfile%"%haslyrics% -T "ALBUMARTIST=%albumartist%" -T "DISCNUMBER=%cdnumber%" -T "TOTALDISCS=%totalcds%" -T "TOTALTRACKS=%numtracks%" -T "COMMENT=%comment%" %source% -o %dest%
TOC of the extracted CD
Track | Start | Length | Start sector | End sector
---------------------------------------------------------
1 | 0:00.00 | 6:26.60 | 0 | 29009
2 | 6:26.60 | 8:39.50 | 29010 | 67984
3 | 15:06.35 | 3:50.74 | 67985 | 85308
4 | 18:57.34 | 8:31.58 | 85309 | 123691
5 | 27:29.17 | 5:59.17 | 123692 | 150633
6 | 33:28.34 | 15:24.51 | 150634 | 219984
Track 1
Filename D:\Torrents\Joe Bonamassa - British Blues Explosion Live [FLAC]\Disc 02\01 - SWLABR.wav
Pre-gap length 0:00:02.00
Peak level 100.0 %
Extraction speed 2.0 X
Track quality 100.0 %
Test CRC 79B1A936
Copy CRC 79B1A936
Track not present in AccurateRip database
Copy OK
Track 2
Filename D:\Torrents\Joe Bonamassa - British Blues Explosion Live [FLAC]\Disc 02\02 - Tea for One,I Can't Quit You Baby.wav
Peak level 100.0 %
Extraction speed 1.4 X
Track quality 100.0 %
Test CRC 19FD6623
Copy CRC 19FD6623
Track not present in AccurateRip database
Copy OK
Track 3
Filename D:\Torrents\Joe Bonamassa - British Blues Explosion Live [FLAC]\Disc 02\03 - Little Girl.wav
Peak level 100.0 %
Extraction speed 1.4 X
Track quality 100.0 %
Test CRC DDF9A4E2
Copy CRC DDF9A4E2
Track not present in AccurateRip database
Copy OK
Track 4
Filename D:\Torrents\Joe Bonamassa - British Blues Explosion Live [FLAC]\Disc 02\04 - Pretending.wav
Peak level 100.0 %
Extraction speed 1.7 X
Track quality 100.0 %
Test CRC BEB3C541
Copy CRC BEB3C541
Track not present in AccurateRip database
Copy OK
Track 5
Filename D:\Torrents\Joe Bonamassa - British Blues Explosion Live [FLAC]\Disc 02\05 - Black Winter,Django.wav
Peak level 100.0 %
Extraction speed 1.6 X
Track quality 99.9 %
Test CRC 9AC2BF0C
Copy CRC 9AC2BF0C
Track not present in AccurateRip database
Copy OK
Track 6
Filename D:\Torrents\Joe Bonamassa - British Blues Explosion Live [FLAC]\Disc 02\06 - How Many More Times.wav
Peak level 100.0 %
Extraction speed 2.1 X
Track quality 100.0 %
Test CRC 63520E3D
Copy CRC 63520E3D
Track not present in AccurateRip database
Copy OK
None of the tracks are present in the AccurateRip database
No errors occurred
End of status report
---- CUETools DB Plugin V2.1.6
[CTDB TOCID: pKn0HqRF8gksuraRi5qx9Gwcllg-] found
Submit result: pKn0HqRF8gksuraRi5qx9Gwcllg- has been confirmed
Track | CTDB Status
1 | (3/3) Accurately ripped
2 | (3/3) Accurately ripped
3 | (3/3) Accurately ripped
4 | (3/3) Accurately ripped
5 | (3/3) Accurately ripped
6 | (3/3) Accurately ripped
==== Log checksum 31CAB8C086462F5C1914544B3F8BE7897B07201A40111CA166A1118048D6C602 ====

Содержание индексной карты (.CUE)

REM GENRE Blues
REM DATE 2018
REM DISCID 440B7506
REM COMMENT "ExactAudioCopy v1.3"
CATALOG 0804879582410
PERFORMER "Joe Bonamassa"
TITLE "British Blue Explosion Live Disc 2"
REM COMPOSER ""
FILE "01 - SWLABR.wav" WAVE
TRACK 01 AUDIO
TITLE "SWLABR"
PERFORMER "Joe Bonamassa"
REM COMPOSER ""
ISRC USMH51800777
INDEX 01 00:00:00
FILE "02 - Tea for One,I Can't Quit You Baby.wav" WAVE
TRACK 02 AUDIO
TITLE "Tea for One/I Can't Quit You Baby"
PERFORMER "Joe Bonamassa"
REM COMPOSER ""
ISRC USMH51800778
INDEX 01 00:00:00
FILE "03 - Little Girl.wav" WAVE
TRACK 03 AUDIO
TITLE "Little Girl"
PERFORMER "Joe Bonamassa"
REM COMPOSER ""
ISRC USMH51800779
INDEX 01 00:00:00
FILE "04 - Pretending.wav" WAVE
TRACK 04 AUDIO
TITLE "Pretending"
PERFORMER "Joe Bonamassa"
REM COMPOSER ""
ISRC USMH51800780
INDEX 01 00:00:00
FILE "05 - Black Winter,Django.wav" WAVE
TRACK 05 AUDIO
TITLE "Black Winter/Django"
PERFORMER "Joe Bonamassa"
REM COMPOSER ""
ISRC USMH51800780
INDEX 01 00:00:00
FILE "06 - How Many More Times.wav" WAVE
TRACK 06 AUDIO
TITLE "How Many More Times"
PERFORMER "Joe Bonamassa"
REM COMPOSER ""
ISRC USMH51800782
INDEX 01 00:00:00

Лог проверки качества

-----------------------
DON'T MODIFY THIS FILE
-----------------------
PERFORMER: auCDtect Task Manager, ver. 1.5.1RC4 build 1.5.1.5
Copyright (c) 2008-2010 y-soft. All rights reserved
http://y-soft.org
ANALYZER: auCDtect: CD records authenticity detector, version 0.8.2
Copyright (c) 2004 Oleg Berngardt. All rights reserved.
Copyright (c) 2004 Alexander Djourik. All rights reserved.
FILE: 06 - How Many More Times.flac
Size: 104968391 Hash: 8C346D642E782F66CEE02DB4A7194382 Accuracy: -m0
Conclusion: CDDA 100%
Signature: F89A90F6F344B5AA90C0603CBDF03CDFF452A555
FILE: 05 - Black Winter,Django.flac
Size: 36023960 Hash: AD9406B01BE3B966DE31DC8F20CA0387 Accuracy: -m0
Conclusion: ???
Signature: 70F5D33F855CC5BA74578CBF4A8B89E0A49EA0A2
FILE: 04 - Pretending.flac
Size: 58138575 Hash: 423EF970F146C160CF3F399217345A1A Accuracy: -m0
Conclusion: CDDA 100%
Signature: 136752D737AC10203BAAEF0379B808D77366CA25
FILE: 03 - Little Girl.flac
Size: 25832045 Hash: CCE077DECDE3634CA1745A72894B5CB2 Accuracy: -m0
Conclusion: CDDA 99%
Signature: E0AC00A108A0CBB8D7D60829645902D0955F795D
FILE: 02 - Tea for One,I Can't Quit You Baby.flac
Size: 53072526 Hash: AD0D83FF201D45C12F116C2E1308F2CA Accuracy: -m0
Conclusion: CDDA 49%
Signature: 2D7D9539DA4641595401BEDBDCF3BBB2D7206CFA
FILE: 01 - SWLABR.flac
Size: 44795598 Hash: 877C3B5BDFEDBE9B4B9691F2FB553DB2 Accuracy: -m0
Conclusion: CDDA 100%
Signature: 95FF58540FC23BD6274CB6FBB42C23CD3E3CB630

Замер динамического диапазона

foobar2000 1.3.9 / Замер динамического диапазона (DR) 1.1.1
Дата отчёта: 2018-05-15 17:31:03
--------------------------------------------------------------------------------
Анализ: Joe Bonamassa / British Blues Explosion Live Disc 2
--------------------------------------------------------------------------------
DR Пики RMS Продолжительность трека
--------------------------------------------------------------------------------
DR7 0.00 дБ -8.49 дБ 6:27 01-SWLABR
DR8 0.00 дБ -11.53 дБ 8:40 02-Tea for One/I Can't Quit You Baby
DR9 0.00 дБ -9.80 дБ 3:51 03-Little Girl
DR8 0.00 дБ -9.25 дБ 8:32 04-Pretending
DR7 0.00 дБ -10.00 дБ 5:59 05-Black Winter/Django
DR7 0.00 дБ -9.66 дБ 15:25 06-How Many More Times
--------------------------------------------------------------------------------
Количество треков: 6
Реальные значения DR: DR8
Частота: 44100 Гц
Каналов: 2
Разрядность: 16
Битрейт: 907 кбит/с
Кодек: FLAC
================================================================================
Доп. информация

Состав

Joe Bonamassa - guitar, vocals
Michael Rhodes - bass
Reese Wynans - keyboards
Anton Fig - drums
Russ Irwin - rhythm guitar, backing vocals

Об исполнителе

On British Blues Explosion Live, Joe Bonamassa pays homage to legendary British guitarists Eric Clapton, Jeff Beck and Jimmy Page with his stunning performance of their blues-rock classics. Recorded at Greenwich Music Time at The Old Royal Naval College in London in July, 2016.
http://tower.jp/item/4719245/British-Blues-Explosion-Live
https://www.jbonamassa.com/albums/2018/british-blues-explosion-live/pre-order/
https://www.mascotlabelgroup.com/joe-bonamassa-british-blues-explosion-cd.html
[torrents24.ru].t39865.torrent 
Торрент: Зарегистрирован [ 2018-05-16 16:10 ] · EBC51BCE029D5BCECCBC03DEB23FD60D66CBBC87

Скачать .torrent

Скачать

15 KB

Статус: проверено
Скачан: 0 раз
Размер: 626 MB

Профиль [ЛС]
Показать сообщения:    

Текущее время: 14-Авг 17:08

Часовой пояс: UTC + 3



Вы не можете начинать темы
Вы не можете отвечать на сообщения
Вы не можете редактировать свои сообщения
Вы не можете удалять свои сообщения
Вы не можете голосовать в опросах
Вы не можете прикреплять файлы к сообщениям
Вы можете скачивать файлы