Статистика раздачи
Размер:  4 GB   |    Зарегистрирован:  5 месяцев 5 дней   |    Скачан:  0 раз

Полного источника не было: Никогда

 
   
 
 

Dima ®

Пол:
Мужской
Стаж:
8 месяцев 14 дней
Сообщений:
945

Tanita Tikaram - Ancient Heart
Страна: UK
Жанр: Pop, Folk, Soft Rock
Продолжительность: 00:58:26+00:14:07
Год выпуска: 2018
Описание: This film was shot on location the island of Bomlo, Norway in 1989, with the co-operation of the promoters, the record company and the local people. An Initial Film & Television Production for WEA Records.
Released on VHS in 1990.
Треклист:
01. Cathedral Song (Instrumental)
02. World Outside Your Window
03. Twist In My Sobriety
04. Thursday's Child
05. Once and Not Speak
06. Little Sister Leaving Town
07. Sighing Innocents
08. Poor Cow
09. Valentine Heart
10. Cathedral Song
11. He Likes The Sun
12. Good Tradition
13. Preyed Upon
14. For All These Years (Instrumental)
Bonus
Videoclips
- Twist In My Sobriety
- Good Tradition
- I Might Be Crying
- If I Ever
Доп. информация:
Исходники:
Tanita Tikaram - Ancient Heart (Live) [1989, Pop-Rock, VHSRip] (Спасибо megaboroda70 )
Tanita Tikaram - Twist In My Sobriety [1988, Pop Rock, DVD] (Спасибо DS.iceberg )
Tanita Tikaram - If I Ever [1998, Pop, SATRemux, AVC, 576i] (Спасибо Злобный Санчез )
(Pop, folk) Tanita Tikaram - Дискография — 7 альбомов и одно интервью - 1988 — 2005, FLAC (tracks+.cue), lossless (Спасибо screencleaner )
Еще пара видеоклипов в нужном качестве была найдена в сети.
Cделано по заявке CHKA1961 и ему же большое спасибо за помощь по созданию этого релиза.
Меню статичное, озвученное, собственного производства.
Полученный результат проверен на работоспособность на софтовом Media Player Classic Home Cinema, записан на болванку с помощью ImgBurn и вновь проверен уже на бытовом плеере.--

Программы, использованные при создании этого релиза

Демуксинг
PgcDemux
tsMuxeR
MPEG Video Wizard DVD
Обработка видео(Только бонусы)
DGDecodeNV
AviSynth
Rhozet Carbon Coder
Обработка аудио(Только бонусы)
Audacity
Создание меню, Авторинг и проверка
SnagIt
MPEG Video Wizard DVD
Muxman
DVD-lab PRO
DvdReMakePro
--Разбивка на главы по трекам: есть
Качество : VHS=>DVD5
Формат: DVD video
Видео кодек: MPEG2
Аудио кодек: PCM, AC3
Видео: PAL 4:3 (704x576) VBR, ~7747(9586) Kbps, 25.000 fps (Live)
Видео2: PAL 4:3 (720x576) VBR, 3562-6000(8000) Kbps, 25.000 fps (Bonus)
Аудио: English (Dolby AC3, 2 ch), 256 Kbps, 48.0 KHz (Live)
Аудио2: English (LinearPCM, 2 ch), 1536 Kbps, 48.0 KHz (Bonus)

DVDinfo+MI

Title: Tanita Tikaram - Ancient Heart. Live 1989
Size: 4.00 Gb ( 4 192 120,00 KBytes ) - DVD-5
Enabled regions: 1, 2, 3, 4, 5, 6, 7, 8
VTS_01 :
Play Length: 00:58:26
Video: PAL 4:3 (704x576) VBR
Audio:
English, AC3, 2/0 (L,R) ch, 256 kbps, Delay 0 mSec
VTS_02 :
Play Length: 00:03:52+00:02:53+00:03:47+00:03:35
Video: PAL 4:3 (720x576) VBR
Audio:
English, LPCM, Delay = 0 mSec
* Menus Information *
VIDEO_TS Menu
Video:
PAL 4:3 (720x576) VBR
Audio:
Not specified (Dolby AC3, 2 ch)
English Language Unit :
Title Menu
VTS_01 Menu
Video:
PAL 4:3 (720x576) VBR
Audio:
Not specified (Dolby AC3, 2 ch)
English Language Unit :
Root Menu
VTS_02 Menu
Video:
PAL 4:3 (720x576) VBR
Audio:
Not specified (Dolby AC3, 2 ch)
English Language Unit :
Root Menu-General
Complete name : N:\Music Video\DVD\Tanita Tikaram - Ancient Heart. Live 1989\VIDEO_TS\VIDEO_TS.BUP
Format : DVD Video
Format profile : Menu
File size : 12.0 KiB
Overall bit rate mode : Variable
FileExtension_Invalid : ifo
Video
ID : 224 (0xE0)
Format : MPEG Video
Format version : Version 2
Bit rate mode : Variable
Width : 720 pixels
Height : 576 pixels
Display aspect ratio : 4:3
Frame rate : 25.000 FPS
Standard : PAL
Compression mode : Lossy
Audio
Format : AC-3
Format/Info : Audio Coding 3
Channel(s) : 2 channels
Sampling rate : 48.0 kHz
Compression mode : Lossy
Text
Format : RLE
Format/Info : Run-length encoding
Bit depth : 2 bits
General
Complete name : N:\Music Video\DVD\Tanita Tikaram - Ancient Heart. Live 1989\VIDEO_TS\VIDEO_TS.IFO
Format : DVD Video
Format profile : Menu
File size : 12.0 KiB
Overall bit rate mode : Variable
Video
ID : 224 (0xE0)
Format : MPEG Video
Format version : Version 2
Bit rate mode : Variable
Width : 720 pixels
Height : 576 pixels
Display aspect ratio : 4:3
Frame rate : 25.000 FPS
Standard : PAL
Compression mode : Lossy
Audio
Format : AC-3
Format/Info : Audio Coding 3
Channel(s) : 2 channels
Sampling rate : 48.0 kHz
Compression mode : Lossy
Text
Format : RLE
Format/Info : Run-length encoding
Bit depth : 2 bits
General
Complete name : N:\Music Video\DVD\Tanita Tikaram - Ancient Heart. Live 1989\VIDEO_TS\VIDEO_TS.VOB
Format : MPEG-PS
File size : 6.06 MiB
Duration : 7 s 872 ms
Overall bit rate mode : Variable
Overall bit rate : 6 462 kb/s
Video
ID : 224 (0xE0)
Format : MPEG Video
Format version : Version 2
Format profile : Main@Main
Format settings, BVOP : Yes
Format settings, Matrix : Custom
Format settings, GOP : Variable
Format settings, picture structure : Frame
Duration : 47 ms
Bit rate mode : Variable
Bit rate : 6 110 kb/s
Maximum bit rate : 8 000 kb/s
Width : 720 pixels
Height : 576 pixels
Display aspect ratio : 4:3
Frame rate : 25.000 FPS
Standard : PAL
Color space : YUV
Chroma subsampling : 4:2:0
Bit depth : 8 bits
Scan type : Interlaced
Scan order : Top Field First
Compression mode : Lossy
Bits/(Pixel*Frame) : 0.589
Time code of first frame : 00:00:00:00
Time code source : Group of pictures header
GOP, Open/Closed : Open
GOP, Open/Closed of first frame : Closed
Stream size : 29.8 KiB (0%)
Audio
ID : 189 (0xBD)-128 (0x80)
Format : AC-3
Format/Info : Audio Coding 3
Format settings, Endianness : Big
Muxing mode : DVD-Video
Duration : 7 s 872 ms
Bit rate mode : Constant
Bit rate : 224 kb/s
Channel(s) : 2 channels
Channel positions : Front: L R
Sampling rate : 48.0 kHz
Frame rate : 31.250 FPS (1536 SPF)
Bit depth : 16 bits
Compression mode : Lossy
Stream size : 215 KiB (3%)
Service kind : Complete Main
Text
ID : 189 (0xBD)-32 (0x20)
Format : RLE
Format/Info : Run-length encoding
Muxing mode : DVD-Video
Menu
General
Complete name : N:\Music Video\DVD\Tanita Tikaram - Ancient Heart. Live 1989\VIDEO_TS\VTS_01_0.BUP
Format : DVD Video
Format profile : Program
File size : 52.0 KiB
Duration : 58 min 26 s
Overall bit rate mode : Variable
Overall bit rate : 121 b/s
FileExtension_Invalid : ifo
Video
ID : 224 (0xE0)
Format : MPEG Video
Format version : Version 2
Duration : 58 min 26 s
Bit rate mode : Variable
Width : 704 pixels
Height : 576 pixels
Display aspect ratio : 4:3
Frame rate : 25.000 FPS
Standard : PAL
Compression mode : Lossy
Audio
ID : 128 (0x80)
Format : AC-3
Format/Info : Audio Coding 3
Duration : 58 min 26 s
Channel(s) : 2 channels
Sampling rate : 48.0 kHz
Compression mode : Lossy
Language : English
Menu
Duration : 58 min 26 s
00:00:00.000 : Chapter 1
00:00:08.640 : Chapter 2
00:02:55.680 : Chapter 3
00:08:03.360 : Chapter 4
00:13:11.040 : Chapter 5
00:17:07.200 : Chapter 6
00:22:21.120 : Chapter 7
00:26:18.720 : Chapter 8
00:30:00.000 : Chapter 9
00:33:23.040 : Chapter 10
00:38:02.400 : Chapter 11
00:41:11.040 : Chapter 12
00:47:37.440 : Chapter 13
00:50:49.920 : Chapter 14
00:55:54.720 : Chapter 15
List (Audio) : 0
General
Complete name : N:\Music Video\DVD\Tanita Tikaram - Ancient Heart. Live 1989\VIDEO_TS\VTS_01_0.IFO
Format : DVD Video
Format profile : Program
File size : 52.0 KiB
Duration : 58 min 26 s
Overall bit rate mode : Variable
Overall bit rate : 121 b/s
Video
ID : 224 (0xE0)
Format : MPEG Video
Format version : Version 2
Duration : 58 min 26 s
Bit rate mode : Variable
Width : 704 pixels
Height : 576 pixels
Display aspect ratio : 4:3
Frame rate : 25.000 FPS
Standard : PAL
Compression mode : Lossy
Audio
ID : 128 (0x80)
Format : AC-3
Format/Info : Audio Coding 3
Duration : 58 min 26 s
Channel(s) : 2 channels
Sampling rate : 48.0 kHz
Compression mode : Lossy
Language : English
Menu
Duration : 58 min 26 s
00:00:00.000 : Chapter 1
00:00:08.640 : Chapter 2
00:02:55.680 : Chapter 3
00:08:03.360 : Chapter 4
00:13:11.040 : Chapter 5
00:17:07.200 : Chapter 6
00:22:21.120 : Chapter 7
00:26:18.720 : Chapter 8
00:30:00.000 : Chapter 9
00:33:23.040 : Chapter 10
00:38:02.400 : Chapter 11
00:41:11.040 : Chapter 12
00:47:37.440 : Chapter 13
00:50:49.920 : Chapter 14
00:55:54.720 : Chapter 15
List (Audio) : 0
General
Complete name : N:\Music Video\DVD\Tanita Tikaram - Ancient Heart. Live 1989\VIDEO_TS\VTS_01_0.VOB
Format : MPEG-PS
File size : 5.15 MiB
Duration : 1 min 27 s
Overall bit rate mode : Variable
Overall bit rate : 491 kb/s
Video
ID : 224 (0xE0)
Format : MPEG Video
Format version : Version 2
Format profile : Main@Main
Format settings, BVOP : No
Format settings, Matrix : Default
Duration : 40 ms
Bit rate mode : Variable
Bit rate : 290 kb/s
Maximum bit rate : 9 000 kb/s
Width : 720 pixels
Height : 576 pixels
Display aspect ratio : 4:3
Frame rate : 25.000 FPS
Standard : PAL
Color space : YUV
Chroma subsampling : 4:2:0
Bit depth : 8 bits
Scan type : Progressive
Scan order : Top Field First
Compression mode : Lossy
Bits/(Pixel*Frame) : 0.028
Stream size : 1.41 KiB (0%)
Color primaries : BT.601 PAL
Transfer characteristics : BT.470 System B, BT.470 System G
Matrix coefficients : BT.470 System B, BT.470 System G
Audio
ID : 189 (0xBD)-128 (0x80)
Format : AC-3
Format/Info : Audio Coding 3
Format settings, Endianness : Big
Muxing mode : DVD-Video
Duration : 1 min 27 s
Bit rate mode : Constant
Bit rate : 192 kb/s
Channel(s) : 2 channels
Channel positions : Front: L R
Sampling rate : 48.0 kHz
Frame rate : 31.250 FPS (1536 SPF)
Bit depth : 16 bits
Compression mode : Lossy
Stream size : 2.01 MiB (39%)
Service kind : Complete Main
Text
ID : 189 (0xBD)-32 (0x20)
Format : RLE
Format/Info : Run-length encoding
Muxing mode : DVD-Video
Duration : 256 ms
Menu
General
Complete name : N:\Music Video\DVD\Tanita Tikaram - Ancient Heart. Live 1989\VIDEO_TS\VTS_01_1.VOB
Format : MPEG-PS
File size : 1 024 MiB
Duration : 17 min 34 s
Overall bit rate mode : Variable
Overall bit rate : 8 147 kb/s
Video
ID : 224 (0xE0)
Format : MPEG Video
Format version : Version 2
Format profile : Main@Main
Format settings, BVOP : Yes
Format settings, Matrix : Custom
Format settings, GOP : M=3, N=12
Format settings, picture structure : Frame
Duration : 17 min 34 s
Bit rate mode : Variable
Bit rate : 7 729 kb/s
Maximum bit rate : 9 586 kb/s
Width : 704 pixels
Height : 576 pixels
Display aspect ratio : 4:3
Frame rate : 25.000 FPS
Standard : PAL
Color space : YUV
Chroma subsampling : 4:2:0
Bit depth : 8 bits
Scan type : Interlaced
Scan order : Top Field First
Compression mode : Lossy
Bits/(Pixel*Frame) : 0.762
Time code of first frame : 00:00:00:00
Time code source : Group of pictures header
GOP, Open/Closed : Closed
Stream size : 971 MiB (95%)
Color primaries : BT.601 PAL
Transfer characteristics : BT.470 System B, BT.470 System G
Matrix coefficients : BT.470 System B, BT.470 System G
Audio
ID : 189 (0xBD)-128 (0x80)
Format : AC-3
Format/Info : Audio Coding 3
Format settings, Endianness : Big
Muxing mode : DVD-Video
Duration : 17 min 33 s
Bit rate mode : Constant
Bit rate : 256 kb/s
Channel(s) : 2 channels
Channel positions : Front: L R
Sampling rate : 48.0 kHz
Frame rate : 31.250 FPS (1536 SPF)
Bit depth : 16 bits
Compression mode : Lossy
Stream size : 32.2 MiB (3%)
Service kind : Complete Main
Menu
General
Complete name : N:\Music Video\DVD\Tanita Tikaram - Ancient Heart. Live 1989\VIDEO_TS\VTS_01_2.VOB
Format : MPEG-PS
File size : 1 024 MiB
Duration : 17 min 32 s
Overall bit rate mode : Variable
Overall bit rate : 8 163 kb/s
Video
ID : 224 (0xE0)
Format : MPEG Video
Format version : Version 2
Format profile : Main@Main
Format settings, BVOP : Yes
Format settings, Matrix : Custom
Format settings, GOP : M=3, N=12
Format settings, picture structure : Frame
Duration : 17 min 31 s
Bit rate mode : Variable
Bit rate : 7 745 kb/s
Maximum bit rate : 9 586 kb/s
Width : 704 pixels
Height : 576 pixels
Display aspect ratio : 4:3
Frame rate : 25.000 FPS
Standard : PAL
Color space : YUV
Chroma subsampling : 4:2:0
Bit depth : 8 bits
Scan type : Interlaced
Scan order : Top Field First
Compression mode : Lossy
Bits/(Pixel*Frame) : 0.764
Time code of first frame : 00:17:34:14
Time code source : Group of pictures header
GOP, Open/Closed : Open
Stream size : 971 MiB (95%)
Color primaries : BT.601 PAL
Transfer characteristics : BT.470 System B, BT.470 System G
Matrix coefficients : BT.470 System B, BT.470 System G
Audio
ID : 189 (0xBD)-128 (0x80)
Format : AC-3
Format/Info : Audio Coding 3
Format settings, Endianness : Big
Muxing mode : DVD-Video
Duration : 17 min 32 s
Bit rate mode : Constant
Bit rate : 256 kb/s
Channel(s) : 2 channels
Channel positions : Front: L R
Sampling rate : 48.0 kHz
Frame rate : 31.250 FPS (1536 SPF)
Bit depth : 16 bits
Compression mode : Lossy
Delay relative to video : -624 ms
Stream size : 32.1 MiB (3%)
Service kind : Complete Main
Menu
General
Complete name : N:\Music Video\DVD\Tanita Tikaram - Ancient Heart. Live 1989\VIDEO_TS\VTS_01_3.VOB
Format : MPEG-PS
File size : 1 024 MiB
Duration : 17 min 33 s
Overall bit rate mode : Variable
Overall bit rate : 8 152 kb/s
Video
ID : 224 (0xE0)
Format : MPEG Video
Format version : Version 2
Format profile : Main@Main
Format settings, BVOP : Yes
Format settings, Matrix : Custom
Format settings, GOP : M=3, N=12
Format settings, picture structure : Frame
Duration : 17 min 33 s
Bit rate mode : Variable
Bit rate : 7 733 kb/s
Maximum bit rate : 9 586 kb/s
Width : 704 pixels
Height : 576 pixels
Display aspect ratio : 4:3
Frame rate : 25.000 FPS
Standard : PAL
Color space : YUV
Chroma subsampling : 4:2:0
Bit depth : 8 bits
Scan type : Interlaced
Scan order : Top Field First
Compression mode : Lossy
Bits/(Pixel*Frame) : 0.763
Time code of first frame : 00:35:06:18
Time code source : Group of pictures header
GOP, Open/Closed : Open
Stream size : 971 MiB (95%)
Color primaries : BT.601 PAL
Transfer characteristics : BT.470 System B, BT.470 System G
Matrix coefficients : BT.470 System B, BT.470 System G
Audio
ID : 189 (0xBD)-128 (0x80)
Format : AC-3
Format/Info : Audio Coding 3
Format settings, Endianness : Big
Muxing mode : DVD-Video
Duration : 17 min 33 s
Bit rate mode : Constant
Bit rate : 256 kb/s
Channel(s) : 2 channels
Channel positions : Front: L R
Sampling rate : 48.0 kHz
Frame rate : 31.250 FPS (1536 SPF)
Bit depth : 16 bits
Compression mode : Lossy
Delay relative to video : -496 ms
Stream size : 32.2 MiB (3%)
Service kind : Complete Main
Menu
General
Complete name : N:\Music Video\DVD\Tanita Tikaram - Ancient Heart. Live 1989\VIDEO_TS\VTS_01_4.VOB
Format : MPEG-PS
File size : 333 MiB
Duration : 5 min 46 s
Overall bit rate mode : Variable
Overall bit rate : 8 071 kb/s
Video
ID : 224 (0xE0)
Format : MPEG Video
Format version : Version 2
Format profile : Main@Main
Format settings, BVOP : Yes
Format settings, Matrix : Custom
Format settings, GOP : M=3, N=12
Format settings, picture structure : Frame
Duration : 5 min 46 s
Bit rate mode : Variable
Bit rate : 7 654 kb/s
Maximum bit rate : 9 586 kb/s
Width : 704 pixels
Height : 576 pixels
Display aspect ratio : 4:3
Frame rate : 25.000 FPS
Standard : PAL
Color space : YUV
Chroma subsampling : 4:2:0
Bit depth : 8 bits
Scan type : Interlaced
Scan order : Top Field First
Compression mode : Lossy
Bits/(Pixel*Frame) : 0.755
Time code of first frame : 00:52:40:08
Time code source : Group of pictures header
GOP, Open/Closed : Open
Stream size : 316 MiB (95%)
Color primaries : BT.601 PAL
Transfer characteristics : BT.470 System B, BT.470 System G
Matrix coefficients : BT.470 System B, BT.470 System G
Audio
ID : 189 (0xBD)-128 (0x80)
Format : AC-3
Format/Info : Audio Coding 3
Format settings, Endianness : Big
Muxing mode : DVD-Video
Duration : 5 min 46 s
Bit rate mode : Constant
Bit rate : 256 kb/s
Channel(s) : 2 channels
Channel positions : Front: L R
Sampling rate : 48.0 kHz
Frame rate : 31.250 FPS (1536 SPF)
Bit depth : 16 bits
Compression mode : Lossy
Delay relative to video : -304 ms
Stream size : 10.6 MiB (3%)
Service kind : Complete Main
Menu
General
Complete name : N:\Music Video\DVD\Tanita Tikaram - Ancient Heart. Live 1989\VIDEO_TS\VTS_02_0.BUP
Format : DVD Video
Format profile : Program
File size : 24.0 KiB
Duration : 3 min 52 s
Overall bit rate mode : Variable
Overall bit rate : 846 b/s
FileExtension_Invalid : ifo
Video
ID : 224 (0xE0)
Format : MPEG Video
Format version : Version 2
Duration : 3 min 52 s
Bit rate mode : Variable
Width : 720 pixels
Height : 576 pixels
Display aspect ratio : 4:3
Frame rate : 25.000 FPS
Standard : PAL
Compression mode : Lossy
Audio
ID : 0 (0x0)
Format : PCM
Duration : 3 min 52 s
Channel(s) : 2 channels
Sampling rate : 48.0 kHz
Language : English
Menu #1
Duration : 3 min 52 s
00:00:00.000 : Chapter 1
List (Audio) : 0
Menu #2
Duration : 2 min 53 s
00:00:00.000 : Chapter 1
List (Audio) : 0
General
Complete name : N:\Music Video\DVD\Tanita Tikaram - Ancient Heart. Live 1989\VIDEO_TS\VTS_02_0.IFO
Format : DVD Video
Format profile : Program
File size : 24.0 KiB
Duration : 3 min 52 s
Overall bit rate mode : Variable
Overall bit rate : 846 b/s
Video
ID : 224 (0xE0)
Format : MPEG Video
Format version : Version 2
Duration : 3 min 52 s
Bit rate mode : Variable
Width : 720 pixels
Height : 576 pixels
Display aspect ratio : 4:3
Frame rate : 25.000 FPS
Standard : PAL
Compression mode : Lossy
Audio
ID : 0 (0x0)
Format : PCM
Duration : 3 min 52 s
Channel(s) : 2 channels
Sampling rate : 48.0 kHz
Language : English
Menu #1
Duration : 3 min 52 s
00:00:00.000 : Chapter 1
List (Audio) : 0
Menu #2
Duration : 2 min 53 s
00:00:00.000 : Chapter 1
List (Audio) : 0
General
Complete name : N:\Music Video\DVD\Tanita Tikaram - Ancient Heart. Live 1989\VIDEO_TS\VTS_02_0.VOB
Format : MPEG-PS
File size : 2.57 MiB
Duration : 1 min 27 s
Overall bit rate mode : Variable
Overall bit rate : 245 kb/s
Video
ID : 224 (0xE0)
Format : MPEG Video
Format version : Version 2
Format profile : Main@Main
Format settings, BVOP : No
Format settings, Matrix : Default
Duration : 40 ms
Bit rate mode : Variable
Bit rate : 47.9 kb/s
Maximum bit rate : 9 000 kb/s
Width : 720 pixels
Height : 576 pixels
Display aspect ratio : 4:3
Frame rate : 25.000 FPS
Standard : PAL
Color space : YUV
Chroma subsampling : 4:2:0
Bit depth : 8 bits
Scan type : Progressive
Scan order : Top Field First
Compression mode : Lossy
Bits/(Pixel*Frame) : 0.005
Time code of first frame : 00:00:00:00
Time code source : Group of pictures header
Stream size : 239 Bytes (0%)
Color primaries : BT.601 PAL
Transfer characteristics : BT.470 System B, BT.470 System G
Matrix coefficients : BT.470 System B, BT.470 System G
Audio
ID : 189 (0xBD)-128 (0x80)
Format : AC-3
Format/Info : Audio Coding 3
Format settings, Endianness : Big
Muxing mode : DVD-Video
Duration : 1 min 27 s
Bit rate mode : Constant
Bit rate : 192 kb/s
Channel(s) : 2 channels
Channel positions : Front: L R
Sampling rate : 48.0 kHz
Frame rate : 31.250 FPS (1536 SPF)
Bit depth : 16 bits
Compression mode : Lossy
Stream size : 2.01 MiB (78%)
Service kind : Complete Main
Text
ID : 189 (0xBD)-32 (0x20)
Format : RLE
Format/Info : Run-length encoding
Muxing mode : DVD-Video
Duration : 256 ms
Menu
General
Complete name : N:\Music Video\DVD\Tanita Tikaram - Ancient Heart. Live 1989\VIDEO_TS\VTS_02_1.VOB
Format : MPEG-PS
File size : 674 MiB
Duration : 3 min 35 s
Overall bit rate mode : Variable
Overall bit rate : 26.3 Mb/s
Video
ID : 224 (0xE0)
Format : MPEG Video
Format version : Version 2
Format profile : Main@Main
Format settings, BVOP : Yes
Format settings, Matrix : Custom
Format settings, GOP : Variable
Format settings, picture structure : Frame
Duration : 3 min 35 s
Bit rate mode : Variable
Bit rate : 24.2 Mb/s
Maximum bit rate : 8 000 kb/s
Width : 720 pixels
Height : 576 pixels
Display aspect ratio : 4:3
Frame rate : 25.000 FPS
Standard : PAL
Color space : YUV
Chroma subsampling : 4:2:0
Bit depth : 8 bits
Scan type : Interlaced
Scan order : Top Field First
Compression mode : Lossy
Bits/(Pixel*Frame) : 2.334
Time code of first frame : 00:00:00:00
Time code source : Group of pictures header
Stream size : 622 MiB (92%)
Audio
ID : 189 (0xBD)-160 (0xA0)
Format : PCM
Format settings, Endianness : Big
Format settings, Sign : Signed
Muxing mode : DVD-Video
Duration : 3 min 35 s
Bit rate mode : Constant
Bit rate : 1 536 kb/s
Channel(s) : 2 channels
Sampling rate : 48.0 kHz
Bit depth : 16 bits
Stream size : 39.4 MiB (6%)

Скриншоты меню

Коврик VHS

Релиз:
[torrents24.ru].t39858.torrent 
Торрент: Зарегистрирован [ 2018-05-16 16:10 ] · 47CF6ADF4CA72977C5A8644FB6D168FE34C75C59

Скачать .torrent

Скачать

21 KB

Статус: проверено
Скачан: 0 раз
Размер: 4 GB

Профиль [ЛС]
Показать сообщения:    

Текущее время: 21-Окт 22:19

Часовой пояс: UTC + 3



Вы не можете начинать темы
Вы не можете отвечать на сообщения
Вы не можете редактировать свои сообщения
Вы не можете удалять свои сообщения
Вы не можете голосовать в опросах
Вы не можете прикреплять файлы к сообщениям
Вы можете скачивать файлы