Статистика раздачи
Размер:  334 MB   |    Зарегистрирован:  5 дней   |    Скачан:  0 раз

Полного источника не было: Никогда

 
   
 
 

Usagi ®

Пол:
Не указан
Стаж:
3 месяца 17 дней
Сообщений:
422

Natana - 1
Жанр: Pop
Носитель: CD
Страна-производитель диска (релиза): Белоруссия
Год издания: 2011
Аудиокодек: Monkey's Audio Compressor (*.ape)
Тип рипа: image + .cue
Битрейт аудио: lossless
Продолжительность: 00:47:42
Источник (релизер): Личный CD rip
Наличие сканов в содержимом раздачи: добавлены
-
Треклист:
01 - Тарантино
02 - Понемногу
03 - BananaMama
04 - Чайка
05 - Замри
06 - Гвадалахара
07 - Ты
08 - Шоссе в никуда
09 - Satisfaction (Rolling Stones cover)
10 - Знатоки (& Алесь Мухин)
11 - Чайка (remix)
12 - Тарантино (remix)
13 - Гвадалахара (& А. Григорьев)
14 - Jazz-Pizzicato
-

EAC

Exact Audio Copy V1.3 from 2. September 2016
Отчёт EAC об извлечении, выполненном 23. апреля 2018, 13:08
Natana / 1
Дисковод: HL-DT-STDVDRAM GSA-T20N Adapter: 1 ID: 0
Режим чтения : Достоверность
Использование точного потока : Да
Отключение кэша аудио : Да
Использование указателей C2 : Нет
Коррекция смещения при чтении : 667
Способность читать области Lead-in и Lead-out : Нет
Заполнение пропущенных сэмплов тишиной : Да
Удаление блоков с тишиной в начале и конце : Нет
При вычислениях CRC использовались нулевые сэмплы : Да
Интерфейс : Встроенный Win32-интерфейс для Win NT/2000
Выходной формат : Пользовательский кодировщик
Выбранный битрейт : 768 kBit/s
Качество : Высокий
Добавление ID3-тега : Нет
Утилита сжатия : { M } onkey's { A } udio { C } ompressor (версия 4.33 - декабрь 2017).exe
Дополнительные параметры : %dest% -t "DiscID=%cddbid%" -t "Comment= ~ ^ ` @ трудился РУ€_ик @ ` ^ ~ " -t "Artist=%artist%" -t "Album=%albumtitle%" -t "Album Artist=%albumartist%" -t "Year=%year%" -t "Genre=%genre%" MAC.exe %source% %dest% -c4000 -V
TOC извлечённого CD
Трек | Старт | Длительность | Начальный сектор | Конечный сектор
---------------------------------------------------------------------
1 | 0:00.00 | 3:50.05 | 0 | 17254
2 | 3:50.05 | 3:50.40 | 17255 | 34544
3 | 7:40.45 | 3:03.24 | 34545 | 48293
4 | 10:43.69 | 3:06.45 | 48294 | 62288
5 | 13:50.39 | 3:28.55 | 62289 | 77943
6 | 17:19.19 | 3:27.56 | 77944 | 93524
7 | 20:47.00 | 3:37.09 | 93525 | 109808
8 | 24:24.09 | 4:00.11 | 109809 | 127819
9 | 28:24.20 | 3:34.00 | 127820 | 143869
10 | 31:58.20 | 3:25.45 | 143870 | 159289
11 | 35:23.65 | 2:58.20 | 159290 | 172659
12 | 38:22.10 | 3:57.08 | 172660 | 190442
13 | 42:19.18 | 3:27.19 | 190443 | 205986
14 | 45:46.37 | 1:54.40 | 205987 | 214576
Характеристики диапазона извлечения и сообщения об ошибках
Выбранный диапазон
Имя файла C:\РУ€_ик\Natana - 1.wav
Пиковый уровень 98.8 %
Скорость извлечения 2.7 X
Качество диапазона 100.0 %
CRC теста 3500831C
CRC копии 3500831C
Копирование... OK
Ошибок не произошло
AccurateRip: сводка
Трек 1 : извлечено точно (доверие 1) [DDBC1C6C] (AR v2)
Трек 2 : извлечено точно (доверие 1) [AEDCAECD] (AR v2)
Трек 3 : извлечено точно (доверие 1) [463EFDC1] (AR v2)
Трек 4 : извлечено точно (доверие 1) [85597A18] (AR v2)
Трек 5 : извлечено точно (доверие 1) [4682BB8D] (AR v2)
Трек 6 : извлечено точно (доверие 1) [1AF09A28] (AR v2)
Трек 7 : извлечено точно (доверие 1) [39A14901] (AR v2)
Трек 8 : извлечено точно (доверие 1) [F5586162] (AR v2)
Трек 9 : извлечено точно (доверие 1) [DD50DC30] (AR v2)
Трек 10 : извлечено точно (доверие 1) [B41308D1] (AR v2)
Трек 11 : извлечено точно (доверие 1) [5858C1B2] (AR v2)
Трек 12 : извлечено точно (доверие 1) [7EA0449B] (AR v2)
Трек 13 : извлечено точно (доверие 1) [917AC501] (AR v2)
Трек 14 : извлечено точно (доверие 1) [8D85C292] (AR v2)
Все треки извлечены точно
Конец отчёта
---- CUETools DB Plugin V2.1.6
[CTDB TOCID: vS4zrCya3d8BIwnW3Az1dqZJPW8-] found
Submit result: vS4zrCya3d8BIwnW3Az1dqZJPW8- has been confirmed
Track | CTDB Status
1 | (1/1) Accurately ripped
2 | (1/1) Accurately ripped
3 | (1/1) Accurately ripped
4 | (1/1) Accurately ripped
5 | (1/1) Accurately ripped
6 | (1/1) Accurately ripped
7 | (1/1) Accurately ripped
8 | (1/1) Accurately ripped
9 | (1/1) Accurately ripped
10 | (1/1) Accurately ripped
11 | (1/1) Accurately ripped
12 | (1/1) Accurately ripped
13 | (1/1) Accurately ripped
14 | (1/1) Accurately ripped
==== Контрольная сумма отчёта FC07FA01390F4AFF8008B30FC21B80F301D177DDDD019590FB64781AB0D6FA11 ====
-

дополнительно

на замену
http://rutracker.org/forum/viewtopic.php?t=5294136

[torrents24.ru].t39856.torrent 
Торрент: Зарегистрирован [ 2018-05-16 16:10 ] · 2C8CF0FD5E94B4DA97A5283AAB86018A6C9EE65A

Скачать .torrent

Скачать

14 KB

Статус: проверено
Скачан: 0 раз
Размер: 334 MB
Профиль [ЛС]
Показать сообщения:    

Текущее время: 22-Май 15:15

Часовой пояс: UTC + 3



Вы не можете начинать темы
Вы не можете отвечать на сообщения
Вы не можете редактировать свои сообщения
Вы не можете удалять свои сообщения
Вы не можете голосовать в опросах
Вы не можете прикреплять файлы к сообщениям
Вы можете скачивать файлы