Статистика раздачи
Размер:  1,08 GB   |    Зарегистрирован:  5 месяцев 5 дней   |    Скачан:  0 раз

Полного источника не было: Никогда

 
   
 
 

АААааа ®

Пол:
Не указан
Стаж:
7 месяцев 22 дня
Сообщений:
808

Версия (Подразделение N)
Год выпуска: 2018
Производство: ТО Кедр
Жанр: детектив
Продолжительность: ~00:45:00 серия
Субтитры: нет
Режиссёр: Роман Иванов, Константин Фролов
В ролях: Павел Крайнов, Виктория Полторак, Кирилл Болтаев, Алексей Овсянников, Михаил Шкловский, Лариса Маркина, Евгения Шипова, Николай Малаев, Ангелина Коршунова, Ирина Ивинская, Александр Числов, Стасс Классен, Елена Коллегова, Александра Артемьева, Джан Бадмаев
Описание: «Подразделение N» – новая группа при главном управлении внутренних дел Москвы, призванная расследовать самые нестандартные и запутанные дела. В группу вошли люди с неоднозначной биографией, от которых давно хотели избавиться начальники других подразделений. Это сотрудники полиции, имеющие множество выговоров, втянутые в служебные расследования, нередко пренебрегающие уставом. Их бы давно уволили из органов, если бы не их результативность и уникальные навыки… В группу вошли: майор Виктор Першин – бывший спасатель МЧС, неформальный лидер, принципиальный человек с неуживчивым характером. Старший лейтенант Наталья Борха – в прошлом хирург, мастер восточных единоборств, служила в ОМОНе, где была одной из немногих женщин. Капитан Антон Муравлянников – в подростковом возрасте был отъявленным хулиганом, но благодаря знакомому инспектору по делам несовершеннолетних исправился. Десять лет проработал участковым на «земле». И капитан Никита Соловей – выпускник МГИМО, мажор и ловелас, увлекается боями без правил. От скуки сменил офисную жизнь на службу в полиции. Ко всеобщему удивлению руководителем группы назначают Ивана Новицкого. Он моложе всех членов группы. Майор в 28 лет, которого за глаза все называют Ванечкой и пытаются разгадать секрет его головокружительной карьеры. У каждого из них остались обширные связи из прошлой жизни, которые они активно используют в расследованиях…

Реклама: Нет.
Кинопоиск
Все раздачи сериала
Sample
Качество: WEBRip - Files-x
Формат: AVI
Видео кодек: XviD
Аудио кодек: AC3
Видео: 720x400 (1.80:1), 25 fps, XviD build 73 ~1500 kbps avg, 0.210 bit/pixel
Аудио: 48.0 kHz, AC3 Dolby Digital, 2/0 (L,R) ch, ~ 192 kbps

Внимание! Раздача ведётся путём добавления новых серий

Раздача ведётся путём добавления новых серий, при каждом добавлении создаётся новый торрент. Чтобы начать докачку новой серии, пользователям необходимо сделать следующее:
- Остановить скачивание.
- Удалить старый торрент у себя из клиента (старые серии удалять не надо).
- Скачать новый торрент и запустить его у себя в клиенте вместо старого, при этом указать клиенту путь в старую папку куда и должно происходить скачивание новых серий.
Ваш клиент при этом должен произвести хеширование (проверку) старой папки (если не производит сам - помогите ему сделать это), и будет докачивать только те серии которых у вас ещё нет. Старые серии при этом не удаляются, а продолжают раздаваться!
Если вы уже удалили старые серии, то предотвратить повторную закачку старых серий можно, отжав галочку в соответствующих местах при запуске нового торрента. По возможности, желательно не удалять старые серии как можно дольше, чтобы релизер не столько продолжал раздавать старые серии, а смог сконцентрироваться на новых.

MI

General
Complete name : D:\versiya (2018).WEB-DLRip.Files-x\01.versiya (2018).WEB-DLRip.Files-x.avi
Format : AVI
Format/Info : Audio Video Interleave
File size : 551 MiB
Duration : 45mn 3s
Overall bit rate : 1 710 Kbps
Writing application : VirtualDubMod 1.5.10.3 | www.virtualdub-fr.org || (build 2550/release)
Writing library : VirtualDubMod build 2550/release
Video
ID : 0
Format : MPEG-4 Visual
Format profile : Advanced Simple@L5
Format settings, BVOP : 1
Format settings, QPel : No
Format settings, GMC : No warppoints
Format settings, Matrix : Custom
Codec ID : XVID
Codec ID/Hint : XviD
Duration : 45mn 3s
Bit rate : 1 508 Kbps
Width : 720 pixels
Height : 400 pixels
Display aspect ratio : 16:9
Frame rate : 25.000 fps
Color space : YUV
Chroma subsampling : 4:2:0
Bit depth : 8 bits
Scan type : Progressive
Compression mode : Lossy
Bits/(Pixel*Frame) : 0.210
Stream size : 486 MiB (88%)
Writing library : XviD 73
Audio
ID : 1
Format : AC-3
Format/Info : Audio Coding 3
Mode extension : CM (complete main)
Format settings, Endianness : Big
Codec ID : 2000
Duration : 45mn 3s
Bit rate mode : Constant
Bit rate : 192 Kbps
Channel count : 2 channels
Channel positions : Front: L R
Sampling rate : 48.0 KHz
Bit depth : 16 bits
Compression mode : Lossy
Stream size : 61.9 MiB (11%)
Alignment : Split accross interleaves
Interleave, duration : 40 ms (1.00 video frame)
Interleave, preload duration : 500 ms

Скриншоты


[torrents24.ru].t39850.torrent 
Торрент: Зарегистрирован [ 2018-05-16 16:10 ] · 3EEF86BB65CF48FCCCDF20EBE9676491B8B01947

Скачать .torrent

Скачать

11 KB

Статус: проверено
Скачан: 0 раз
Размер: 1,08 GB

Профиль [ЛС]
Показать сообщения:    

Текущее время: 21-Окт 21:59

Часовой пояс: UTC + 3



Вы не можете начинать темы
Вы не можете отвечать на сообщения
Вы не можете редактировать свои сообщения
Вы не можете удалять свои сообщения
Вы не можете голосовать в опросах
Вы не можете прикреплять файлы к сообщениям
Вы можете скачивать файлы