Статистика раздачи
Размер:  6,74 GB   |    Зарегистрирован:  5 месяцев 5 дней   |    Скачан:  0 раз

Полного источника не было: Никогда

 
   
 
 

RussianGirl ®

Пол:
Не указан
Стаж:
8 месяцев 13 дней
Сообщений:
967

Джуманджи: Зов джунглей / Jumanji: Welcome to the Jungle- Год выпуска: 2017
Страна: США / Sony Pictures Entertainment
Жанр: фэнтези, боевик, комедия, приключения
Продолжительность: 01:59:03
Перевод: Профессиональный (дублированный)
Субтитры: русские (форсированные, полные), украинские (полные), английские (полные, полные SDH)
Оригинальная аудиодорожка: английский-Режиссер: Джейк Кэздан / Jake Kasdan-В ролях: Дуэйн Джонсон, Кевин Харт, Джек Блэк, Карен Гиллан, Риз Дэрби, Бобби Каннавейл, Ник Джонас, Алекс Вулф, Сер’Дариус Блэйн, Мэдисон Исман.-Описание: Четверо подростков оказываются внутри игры «Джуманджи». Их ждет схватка с носорогами, черными мамбами, а на каждом шагу будет подстерегать бесконечная череда ловушек и головоломок. Чтобы пройти игру и остаться в живых, им придется перевоплотиться в персонажей игры: робкий и застенчивый Спенсер превращается в отважного и сильного исследователя, здоровяк Фридж — в коротышку, модница и красавица Беттани — в профессора, а неуклюжая и нескладная Марта становится бесстрашной и ловкой амазонкой. Друзьям придется привыкнуть к совершенно новым и таким непривычным для себя ролям и найти дорогу домой.-Рейтинг
kinopoisk.ru 6.990 (32 157)
imdb.com 7.20 (88 747)
-Тип релиза: BDRip 720p
Контейнер: MKV | Sample
Видео: 1280x534 at 23.976 fps, x264@L4.1, 2pass, ~6600 kbps avg
Аудио 1: Russian 48 kHz, AC3, 3/2 (L,C,R,l,r) + LFE ch, ~640.00 kbps avg | Дубляж BD EUR
Аудио 2: Ukrainian 48 kHz, AC3, 2/0 (L,R) ch, ~224.00 kbps avg | Дубляж iTunes
Аудио 3: English 48 kHz, AC3, 3/2 (L,C,R,l,r) + LFE ch, ~640.00 kbps avg | Original
Формат субтитров: softsub (SRT)

Media Info

Format : Matroska
Format version : Version 4 / Version 2
File size : 6.74 GiB
Duration : 1h 59mn
Overall bit rate : 8 109 Kbps
Movie name : Джуманджи: Зов джунглей / Jumanji: Welcome to the Jungle / 2017
Encoded date : UTC 2018-05-13 17:03:53
Writing application : mkvmerge v22.0.0 ('At The End Of The World') 32-bit
Writing library : libebml v1.3.5 + libmatroska v1.4.8
Video
ID : 1
Format : AVC
Format/Info : Advanced Video Codec
Format profile : High@L4.1
Format settings, CABAC : Yes
Format settings, ReFrames : 12 frames
Codec ID : V_MPEG4/ISO/AVC
Duration : 1h 59mn
Bit rate : 6 600 Kbps
Width : 1 280 pixels
Height : 534 pixels
Display aspect ratio : 2.40:1
Frame rate mode : Constant
Frame rate : 23.976 (24000/1001) fps
Color space : YUV
Chroma subsampling : 4:2:0
Bit depth : 8 bits
Scan type : Progressive
Bits/(Pixel*Frame) : 0.403
Stream size : 5.49 GiB (81%)
Title : BDRip 720p
Writing library : x264 core 152 r2851kMod ba24899
Encoding settings : cabac=1 / ref=12 / deblock=1:-3:-3 / analyse=0x3:0x133 / me=umh / subme=11 / psy=1 / fade_compensate=0.00 / psy_rd=1.05:0.00 / mixed_ref=1 / me_range=32 / chroma_me=1 / trellis=2 / 8x8dct=1 / cqm=0 / deadzone=21,11 / fast_pskip=0 / chroma_qp_offset=-2 / threads=12 / lookahead_threads=2 / sliced_threads=0 / slices=4 / nr=0 / decimate=0 / interlaced=0 / bluray_compat=0 / constrained_intra=0 / bframes=8 / b_pyramid=2 / b_adapt=2 / b_bias=0 / direct=3 / weightb=1 / open_gop=0 / weightp=2 / keyint=250 / keyint_min=23 / scenecut=40 / intra_refresh=0 / rc_lookahead=40 / rc=2pass / mbtree=0 / bitrate=6600 / ratetol=1.0 / qcomp=0.60 / qpmin=0 / qpmax=69 / qpstep=4 / cplxblur=20.0 / qblur=0.5 / vbv_maxrate=50000 / vbv_bufsize=62500 / nal_hrd=none / filler=0 / ip_ratio=1.30 / pb_ratio=1.25 / aq=3:0.85 / zones=333,828,b=1.4/1080,1150,b=1.4/4461,4590,b=1.4/23957,24740,b=1.4/38341,38685,b=1.4/49130,50520,b=1.4/50520,50539,b=1.55/50564,53473,b=1.4/70300,70380,b=1.4/81627,81920,b=1.33/82964,84709,b=1.4/109509,113764,b=1.35/127088,147092,b=1.35/147188,161717,b=1.25/161720,171263,b=0.2
Language : English
Default : Yes
Forced : No
Color range : Limited
Matrix coefficients : BT.709
Audio #1
ID : 2
Format : AC-3
Format/Info : Audio Coding 3
Mode extension : CM (complete main)
Format settings, Endianness : Big
Codec ID : A_AC3
Duration : 1h 59mn
Bit rate mode : Constant
Bit rate : 640 Kbps
Channel(s) : 6 channels
Channel positions : Front: L C R, Side: L R, LFE
Sampling rate : 48.0 KHz
Frame rate : 31.250 fps (1536 spf)
Compression mode : Lossy
Stream size : 545 MiB (8%)
Title : Dub BD EUR
Language : Russian
Default : Yes
Forced : No
Audio #2
ID : 3
Format : AC-3
Format/Info : Audio Coding 3
Mode extension : CM (complete main)
Format settings, Endianness : Big
Codec ID : A_AC3
Duration : 1h 59mn
Bit rate mode : Constant
Bit rate : 224 Kbps
Channel(s) : 2 channels
Channel positions : Front: L R
Sampling rate : 48.0 KHz
Frame rate : 31.250 fps (1536 spf)
Compression mode : Lossy
Stream size : 191 MiB (3%)
Title : Dud iTunes
Language : Ukrainian
Default : No
Forced : No
Audio #3
ID : 4
Format : AC-3
Format/Info : Audio Coding 3
Mode extension : CM (complete main)
Format settings, Endianness : Big
Codec ID : A_AC3
Duration : 1h 59mn
Bit rate mode : Constant
Bit rate : 640 Kbps
Channel(s) : 6 channels
Channel positions : Front: L C R, Side: L R, LFE
Sampling rate : 48.0 KHz
Frame rate : 31.250 fps (1536 spf)
Compression mode : Lossy
Stream size : 545 MiB (8%)
Title : Original
Language : English
Default : No
Forced : No
Text #1
ID : 5
Format : UTF-8
Codec ID : S_TEXT/UTF8
Codec ID/Info : UTF-8 Plain Text
Duration : 1h 55mn
Bit rate : 0 bps
Count of elements : 2
Stream size : 110 Bytes (0%)
Title : Forced
Language : Russian
Default : Yes
Forced : No
Text #2
ID : 6
Format : UTF-8
Codec ID : S_TEXT/UTF8
Codec ID/Info : UTF-8 Plain Text
Duration : 1h 57mn
Bit rate : 95 bps
Count of elements : 1577
Stream size : 82.2 KiB (0%)
Title : Full
Language : Russian
Default : No
Forced : No
Text #3
ID : 7
Format : UTF-8
Codec ID : S_TEXT/UTF8
Codec ID/Info : UTF-8 Plain Text
Duration : 1h 57mn
Bit rate : 76 bps
Count of elements : 1562
Stream size : 66.4 KiB (0%)
Title : Full
Language : Ukrainian
Default : No
Forced : No
Text #4
ID : 8
Format : UTF-8
Codec ID : S_TEXT/UTF8
Codec ID/Info : UTF-8 Plain Text
Duration : 1h 48mn
Bit rate : 63 bps
Count of elements : 1531
Stream size : 50.5 KiB (0%)
Title : Full
Language : English
Default : No
Forced : No
Text #5
ID : 9
Format : UTF-8
Codec ID : S_TEXT/UTF8
Codec ID/Info : UTF-8 Plain Text
Duration : 1h 58mn
Bit rate : 67 bps
Count of elements : 1876
Stream size : 58.6 KiB (0%)
Title : Full SDH
Language : English
Default : No
Forced : No
Menu
00:00:00.000 : en:00:00:00.000
00:07:18.104 : en:00:07:18.104
00:17:15.993 : en:00:17:15.993
00:23:23.235 : en:00:23:23.235
00:29:24.972 : en:00:29:24.972
00:42:28.546 : en:00:42:28.546
00:47:11.162 : en:00:47:11.162
00:54:26.722 : en:00:54:26.722
01:03:20.839 : en:01:03:20.839
01:10:21.801 : en:01:10:21.801
01:15:51.672 : en:01:15:51.672
01:24:10.087 : en:01:24:10.087
01:28:20.295 : en:01:28:20.295
01:33:48.414 : en:01:33:48.414
01:42:22.887 : en:01:42:22.887
01:48:31.839 : en:01:48:31.839

Скриншоты

[torrents24.ru].t39809.torrent 
Торрент: Зарегистрирован [ 2018-05-16 16:10 ] · 0966678A0AB4B87172EBC0E51B9FC4E96DA626FD

Скачать .torrent

Скачать

34 KB

Статус: проверено
Скачан: 0 раз
Размер: 6,74 GB

Профиль [ЛС]
Показать сообщения:    

Текущее время: 21-Окт 21:49

Часовой пояс: UTC + 3



Вы не можете начинать темы
Вы не можете отвечать на сообщения
Вы не можете редактировать свои сообщения
Вы не можете удалять свои сообщения
Вы не можете голосовать в опросах
Вы не можете прикреплять файлы к сообщениям
Вы можете скачивать файлы