Статистика раздачи
Размер:  1,47 GB   |    Зарегистрирован:  1 месяц 1 день   |    Скачан:  0 раз

Полного источника не было: Никогда

 
   
 
 

GEEP ®

Пол:
Не указан
Стаж:
4 месяца 10 дней
Сообщений:
477

Лесной змей / Полынь: Дорога мёртвых / Wyrmwood: Road of the dead
Страна: Австралия
Жанр: ужасы, боевик, триллер
Год выпуска: 2014
Продолжительность: 01:38:17
Перевод: Профессиональный (многоголосый закадровый) "СВ Студия"
Субтитры: нет
Режиссер: Кия Роуч-Тернер / Kiah Roache-Turner
В ролях: Джей Галлахер, Бьянка Брэди, Леон Бурчилл, Люк МакКензи, Юр Кович, Кит Агиус, Катрин Террачини, Кэйн Томпсон, Бет Обри
Описание: Зомби заполонили улицы. Теперь невозможно жить как прежде. Передвигаться по городу и за его пределами опасно. Люди потеряли способность мыслить разумно. Все человеческое теперь им чуждо. Ими обладает лишь желание полакомиться человеческой плотью. Барри был механиком и зарабатывал деньги на пропитание своей семьи честным трудом. С пришествием ходячих умерших он потерял все. Теперь лишь желание выжить держит его на этом свете. Австралийские заросли кишат опасностью. Зомби крепко обосновались. По дороге к выживанию Барри знакомится с Чалкером. Мужчина еще один из выживших счастливчиков. Они объединяются в борьбе против хищника. Теперь на плотоядных монстров объявлена охота. Им не улизнуть от гнева живых...

Сэмпл: http://multi-up.com/1198342
Качество видео: BDRip (Исходник Wyrmwood.2014.BDRemux)
Формат видео: AVI
Видео: XviD 73, 704x400, (16:9), 24,000 fps, 1687 Кбит/с, 0.25 bit/pixel
Аудио: Русский (АС3, 6 ch (Front: L C R, Side: L R, LFE), 48,0 KHz, 448 Kbps)

MediaInfo

Общее
Полное имя : D:\Видеофильмы\В и д е о\Лесной змей (ужасы, боевик, триллер 2014 год).avi
Формат : AVI
Формат/Информация : Audio Video Interleave
Размер файла : 1,47 Гбайт
Продолжительность : 1 ч. 38 м.
Общий поток : 2145 Кбит/сек
Программа кодирования : VirtualDubMod 1.5.10.2 (build 2540/release)
Библиотека кодирования : VirtualDubMod build 2540/release
Видео
Идентификатор : 0
Формат : MPEG-4 Visual
Профиль формата : Advanced Simple@L5
Параметр BVOP формата : 2
Параметр QPel формата : Нет
Параметр GMC формата : Без точки перехода
Параметр матрицы формата : Выборочная
Идентификатор кодека : XVID
Идентификатор кодека/Подсказка : XviD
Продолжительность : 1 ч. 38 м.
Битрейт : 1687 Кбит/сек
Ширина : 720 пикселей
Высота : 400 пикселей
Соотношение сторон : 16:9
Частота кадров : 24,000 кадра/сек
Цветовое пространство : YUV
Субдискретизация насыщенности : 4:2:0
Битовая глубина : 8 бит
Тип развёртки : Прогрессивная
Метод сжатия : С потерями
Бит/(Пиксели*Кадры) : 0.244
Размер потока : 1,16 Гбайт (79%)
Библиотека кодирования : XviD 73
Аудио
Идентификатор : 1
Формат : AC-3
Формат/Информация : Audio Coding 3
Расширение режима : CM (complete main)
Параметр Endianness формата : Big
Идентификатор кодека : 2000
Продолжительность : 1 ч. 38 м.
Вид битрейта : Постоянный
Битрейт : 448 Кбит/сек
Каналы : 6 каналов
Расположение каналов : Front: L C R, Side: L R, LFE
Частота : 48,0 КГц
Частота кадров : 31,250 кадров/сек (1536 spf)
Метод сжатия : С потерями
Размер потока : 315 Мбайт (21%)
Выравнивание : Разделение по промежуткам
Продолжительность промежутка : 42 мс. (1,00 видеокадр)
Время предзагрузки промежутка : 500 мс.

Скриншот c названием фильма

Скриншоты

[torrents24.ru].t39808.torrent 
Торрент: Зарегистрирован [ 2018-05-16 16:10 ] · 6B73366257902898CA67568C65ADE399F18BCCFD

Скачать .torrent

Скачать

15 KB

Статус: проверено
Скачан: 0 раз
Размер: 1,47 GB

Профиль [ЛС]
Показать сообщения:    

Текущее время: 18-Июн 00:55

Часовой пояс: UTC + 3



Вы не можете начинать темы
Вы не можете отвечать на сообщения
Вы не можете редактировать свои сообщения
Вы не можете удалять свои сообщения
Вы не можете голосовать в опросах
Вы не можете прикреплять файлы к сообщениям
Вы можете скачивать файлы