Статистика раздачи
Размер:  3,95 GB   |    Зарегистрирован:  5 месяцев 6 дней   |    Скачан:  0 раз

Полного источника не было: Никогда

 
   
 
 

Domino ®

Пол:
Не указан
Стаж:
8 месяцев 13 дней
Сообщений:
541

Безопасность / Safe
Год выпуска: 2018
Страна: Великобритания
Жанр: Драма, триллер
Продолжительность: ~ 00:45:00
Перевод: Профессиональный (двухголосый закадровый)[Gears Media]
Режиссёр: Джулия Форд, Дэниэл О’Хара, Дэниэл Неттхейм
В ролях: Майкл Карлайл Холл, Аманда Аббингтон, Ханна Артертон, Луис Гриторекс, Чук Сибтайн, Хиро Файнс-Тиффин, Кэти Кармайкл, Изабелль Аллен, Одри Флеро
Описание:
Сюжет восьмисерийного триллера вращается вокруг британца Тома — детского хирурга и вдовствующего отца двоих дочерей, Дженни и Кэрри. Однажды Дженни, отношения которой с папой оставляют желать лучшего, отправляется на вечеринку и бесследно пропадает. Это событие становится началом сущего кошмара не только для семьи Тома, но и для всего городка, обитатели которого до сей поры жили в полной уверенности, что у них тут вполне безопасно. Выяснится, что страшные тайны имеются не только у подростков, но и у благопристойных взрослых горожан, и еще надо выяснить, чьи секреты страшнее.
Ссылка на предыдущие и альтернативные раздачи: http://rutracker.org/forum/tracker.php?nm=Safe
Сэмпл: http://multi-up.com/1198296
Качество: WEBRip
Формат: AVI
Видео: XviD, 720x400 at 25.000 fps, ~1400 kbps avg
Аудио1: Russian, MP3, 48 kHz, 2 ch, 128 kbps
Аудио2: English, MP3, 48 kHz, 2 ch, 128 kbps
Субтитры: нет
Реклама: аудио (два раза, в начале и конце, по 12 сек.)

MediaInfo

Format : AVI
Format/Info : Audio Video Interleave
File size : 491 MiB
Duration : 41 min 42 s
Overall bit rate : 1 644 kb/s
Writing application : Lavf56.30.100
Video
ID : 0
Format : xvid
Codec ID : xvid
Duration : 41 min 42 s
Bit rate : 1 367 kb/s
Width : 720 pixels
Height : 400 pixels
Display aspect ratio : 16:9
Frame rate : 25.000 FPS
Scan type : Progressive
Bits/(Pixel*Frame) : 0.190
Stream size : 408 MiB (83%)
Audio #1
ID : 1
Format : MPEG Audio
Format version : Version 1
Format profile : Layer 3
Format settings : Joint stereo
Codec ID : 55
Codec ID/Hint : MP3
Duration : 41 min 42 s
Bit rate mode : Constant
Bit rate : 128 kb/s
Channel(s) : 2 channels
Sampling rate : 48.0 kHz
Compression mode : Lossy
Stream size : 38.2 MiB (8%)
Alignment : Aligned on interleaves
Interleave, duration : 24 ms (0.60 video frame)
Interleave, preload duratio : 24 ms
Title : Gears Media
Writing library : LAME3.99.5ЄЄЄЄЄЄЄЄЄЄ
Audio #2
ID : 2
Format : MPEG Audio
Format version : Version 1
Format profile : Layer 3
Format settings : Joint stereo
Codec ID : 55
Codec ID/Hint : MP3
Duration : 41 min 42 s
Bit rate mode : Constant
Bit rate : 128 kb/s
Channel(s) : 2 channels
Sampling rate : 48.0 kHz
Compression mode : Lossy
Stream size : 38.2 MiB (8%)
Alignment : Aligned on interleaves
Interleave, duration : 24 ms (0.60 video frame)
Interleave, preload duratio : 24 ms

Скриншоты

Внимание! Раздача ведётся путём добавления новых серий

Внимание! Раздача ведётся путём добавления новых серий; при каждом добавлении создаётся новый торрент. Чтобы начать докачку новой серии, пользователям необходимо сделать следующее:
(1) остановить скачивание,
(2) удалить старый торрент у себя из клиента (старые серии удалять не надо),
(3) скачать новый торрент и запустить его у себя в клиенте вместо старого, при этом указать клиенту путь в старую папку куда и должно происходить скачивание новых серий.
Ваш клиент при этом должен произвести хеширование (проверку) старой папки (если не производит сам - помогите ему сделать это), и будет докачивать только те серии которых у вас ещё нет. Старые серии при этом не удаляются, а продолжают раздаваться!
Eсли вы уже удалили старые серии, то предотвратить повторную закачку старых серий можно, отжав галочку в соответствующих местах при запуске нового торрента. По возможности, желательно не удалять старые серии как можно дольше чтобы релизёр не столько продолжал раздавать старые серии, а смог сконцентрироваться на новых.
[torrents24.ru].t39799.torrent 
Торрент: Зарегистрирован [ 2018-05-15 16:45 ] · 5FB759A6E767F0211D15F331B300900C21544B85

Скачать .torrent

Скачать

21 KB

Статус: проверено
Скачан: 0 раз
Размер: 3,95 GB

Профиль [ЛС]
Показать сообщения:    

Текущее время: 21-Окт 21:39

Часовой пояс: UTC + 3



Вы не можете начинать темы
Вы не можете отвечать на сообщения
Вы не можете редактировать свои сообщения
Вы не можете удалять свои сообщения
Вы не можете голосовать в опросах
Вы не можете прикреплять файлы к сообщениям
Вы можете скачивать файлы