Статистика раздачи
Размер:  1,46 GB   |    Зарегистрирован:  4 месяца 10 дней   |    Скачан:  0 раз

Полного источника не было: Никогда

 
   
 
 

Акробат ®

Пол:
Не указан
Стаж:
7 месяцев 17 дней
Сообщений:
153

Поп Америка / American Pop
Страна: США
Жанр: драма, иностранный, мультфильм
Продолжительность: 01:35:44
Год выпуска: 1981
Перевод: Профессиональный (дублированный)
Русские субтитры: нет

Режиссёр: Ральф Бакши / Ralph Bakshi
Роли озвучивали: Рон Томпсон, Мьюз Смолл, Джерри Холлэнд, Лиза Джейн Перски, Джеффри Липпа, Роз Келли, Фрэнк ДеКова, Ричард Сингер, Эльза Рэйвен, Бен Фроммер

Роли дублировали: Илья Хвостиков, Михаил Тихонов, Ольга Голованова, Василий Дахненко, Петр Тобилевич
Описание: Драматическая история четырёх поколений еврейской семьи музыкантов из России, показанная параллельно с историей Американской популярной музыки 20-го столетия, в сопровождении Боба Дилана, Лу Рида, Фила Силверса и др.
Семпл
Качество: WEB-DLRip
Формат: AVI
Видео: 704x400 (1.76:1), 23.976 fps, XviD build 73 ~1784 kbps avg, 0.26 bit/pixel
Аудио: 48 kHz, AC3 Dolby Digital, 2/0 (L,R) ch, ~192 kbps - дубляж
Аудио: 48 kHz, AC3 Dolby Digital, 2/0 (L,R) ch, ~192 kbps - оригинал
Субтитры: английские

Подробные технические данные

General
Complete name : H:\American.Pop.1981.web-dlrip_[1.46]_[teko]\American.Pop.1981.web-dlrip_[1.46].avi
Format : AVI
Format/Info : Audio Video Interleave
File size : 1.46 GiB
Duration : 1h 35mn
Overall bit rate : 2 183 Kbps
Writing application : VirtualDubMod 1.5.10.3 | www.virtualdub-fr.org || (build 2550/release)
Writing library : VirtualDubMod build 2550/release
Video
ID : 0
Format : MPEG-4 Visual
Format profile : Advanced Simple@L5
Format settings, BVOP : 2
Format settings, QPel : No
Format settings, GMC : No warppoints
Format settings, Matrix : Custom
Codec ID : XVID
Codec ID/Hint : XviD
Duration : 1h 35mn
Bit rate : 1 785 Kbps
Width : 704 pixels
Height : 400 pixels
Display aspect ratio : 16:9
Frame rate : 23.976 (23976/1000) fps
Color space : YUV
Chroma subsampling : 4:2:0
Bit depth : 8 bits
Scan type : Progressive
Compression mode : Lossy
Bits/(Pixel*Frame) : 0.264
Stream size : 1.19 GiB (82%)
Writing library : XviD 73
Audio #1
ID : 1
Format : AC-3
Format/Info : Audio Coding 3
Mode extension : CM (complete main)
Format settings, Endianness : Big
Codec ID : 2000
Duration : 1h 35mn
Bit rate mode : Constant
Bit rate : 192 Kbps
Channel(s) : 2 channels
Channel positions : Front: L R
Sampling rate : 48.0 KHz
Frame rate : 31.250 fps (1536 spf)
Compression mode : Lossy
Stream size : 131 MiB (9%)
Alignment : Split accross interleaves
Interleave, duration : 42 ms (1.00 video frame)
Interleave, preload duratio : 500 ms
Audio #2
ID : 2
Format : AC-3
Format/Info : Audio Coding 3
Format profile : Dolby Digital
Mode extension : CM (complete main)
Format settings, Endianness : Big
Codec ID : 2000
Duration : 1h 35mn
Bit rate mode : Constant
Bit rate : 192 Kbps
Channel(s) : 2 channels
Channel positions : Front: L R
Sampling rate : 48.0 KHz
Frame rate : 31.250 fps (1536 spf)
Compression mode : Lossy
Stream size : 131 MiB (9%)
Alignment : Split accross interleaves
Interleave, duration : 42 ms (1.00 video frame)
Interleave, preload duratio : 500 ms
Релиз группы:
--
[torrents24.ru].t39786.torrent 
Торрент: Зарегистрирован [ 2018-05-15 16:45 ] · 34D2FD31880CFCC5CF2ACD047980F7DD721E0614

Скачать .torrent

Скачать

15 KB

Статус: проверено
Скачан: 0 раз
Размер: 1,46 GB

Профиль [ЛС]
Показать сообщения:    

Текущее время: 25-Сен 19:56

Часовой пояс: UTC + 3



Вы не можете начинать темы
Вы не можете отвечать на сообщения
Вы не можете редактировать свои сообщения
Вы не можете удалять свои сообщения
Вы не можете голосовать в опросах
Вы не можете прикреплять файлы к сообщениям
Вы можете скачивать файлы