Статистика раздачи
Размер:  1,35 GB   |    Зарегистрирован:  4 месяца 10 дней   |    Скачан:  0 раз

Полного источника не было: Никогда

 
   
 
 

seed ®

Пол:
Не указан
Стаж:
7 месяцев 17 дней
Сообщений:
231

Бродяги Севера
Жанр: детский фильм, приключения
Год выпуска: 1983
Продолжительность: 01:14:12
Режиссёр: Игорь Негреску
В ролях: Валерия Цой, Петерис Гаудиньш, Николай Кузьмин, Александр Агапов, Стасис Петронайтис, и др.
Описание: Бурый медвежонок и домашний щенок, по воле случая вынуждены путешествовать в обществе друг друга.
Маленькие друзья по несчастью, пытаются выжить в мире полном опасностей, в жестоких условиях дикого мира канадского северо-запада, и в мире жестоких людей!
Но каждому природа назначила своё — один зимой впадает в спячку, второй должен бороться...
Рассказ о жизни природы, о дружбе и верности щенка Мики и бурого медвежонка Неевы...
Фильм снят по мотивам одноименной повести канадского писателя Джеймса Оливера Кервуда.

Качество видео: SATRip
Формат видео: AVI
Видео: 720x544 (1.32:1), 25 fps, XviD build 73 ~2372 kbps avg, 0.24 bit/pixel
Аудио: 48 kHz, MPEG Layer 3, 2 ch, ~224.00 kbps avg

AviInfo

File: Brodyagi Severa 1983 SATRip.avi
Title: Brodyagi Severa 1983 SATRip
Author: OGORODNIKOFFF
Copyleft: OGORODNIKOFFF
Genre: художественный
Category: 1983
Comment: 4 мая 2018 г.
Filesize: 1383.78 Mb ( 1 450 997 760 bytes )
Play length: 01:14:12.959 (111324 frames)
Subtitles: Not Present
Video: 720x544 (1.32:1), 25 fps, XviD build 73 ~2372 kbps avg, 0.24 bit/pixel
Audio: 48 kHz, MPEG Layer 3, 2 ch, ~224.00 kbps avg

MediaInfo

Общее
Полное имя : F:\Brodyagi Severa 1983 SATRip.avi
Формат : AVI
Формат/Информация : Audio Video Interleave
Размер файла : 1,35 Гбайт
Продолжительность : 1 ч. 14 м.
Общий поток : 2607 Кбит/сек
Название фильма : Brodyagi Severa 1983 SATRip
Режиссёр : OGORODNIKOFFF
Жанр : художественный
Программа кодирования : VirtualDubMod 1.5.4.1 (build 2178/release)
Формат оригинала/Имя : 1983
Авторское право : OGORODNIKOFFF
Примечание : 4 мая 2018 г.
Видео
Идентификатор : 0
Формат : MPEG-4 Visual
Профиль формата : Advanced Simple@L5
Настройки формата : BVOP2 / Custom Matrix
Параметр BVOP формата : 2
Параметр QPel формата : Нет
Параметр GMC формата : Без точки перехода
Параметр матрицы формата : Выборочная
Идентификатор кодека : DX50
Идентификатор кодека/Подсказка : DivX 5
Продолжительность : 1 ч. 14 м.
Битрейт : 2373 Кбит/сек
Ширина : 720 пикселей
Высота : 544 пикселя
Соотношение сторон : 4:3
Частота кадров : 25,000 кадров/сек
Цветовое пространство : YUV
Субдискретизация насыщенности : 4:2:0
Битовая глубина : 8 бит
Тип развёртки : Прогрессивная
Метод сжатия : С потерями
Бит/(Пиксели*Кадры) : 0.242
Размер потока : 1,23 Гбайт (91%)
Библиотека кодирования : XviD 73
Аудио
Идентификатор : 1
Формат : MPEG Audio
Версия формата : Version 1
Профиль формата : Layer 3
Настройки формата : Joint stereo / MS Stereo
Режим : Joint stereo
Расширение режима : MS Stereo
Идентификатор кодека : 55
Идентификатор кодека/Подсказка : MP3
Продолжительность : 1 ч. 14 м.
Вид битрейта : Постоянный
Битрейт : 224 Кбит/сек
Каналы : 2 канала
Частота : 48,0 КГц
Метод сжатия : С потерями
Размер потока : 119 Мбайт (9%)
Выравнивание : Соединение по промежуткам
Продолжительность промежутка : 40 мс. (1,00 видеокадр)
Время предзагрузки промежутка : 504 мс.
Библиотека кодирования : LAME3.100В

Скриншот c названием фильма

[torrents24.ru].t39715.torrent 
Торрент: Зарегистрирован [ 2018-05-15 16:45 ] · CCADD33C833E5670D502A1BBCAA58D826C2C40BF

Скачать .torrent

Скачать

14 KB

Статус: проверено
Скачан: 0 раз
Размер: 1,35 GB

Профиль [ЛС]
Показать сообщения:    

Текущее время: 25-Сен 19:48

Часовой пояс: UTC + 3



Вы не можете начинать темы
Вы не можете отвечать на сообщения
Вы не можете редактировать свои сообщения
Вы не можете удалять свои сообщения
Вы не можете голосовать в опросах
Вы не можете прикреплять файлы к сообщениям
Вы можете скачивать файлы