Статистика раздачи
Размер:  439 MB   |    Зарегистрирован:  5 месяцев 8 дней   |    Скачан:  0 раз

Полного источника не было: Никогда

 
   
 
 

maria ®

Пол:
Не указан
Стаж:
8 месяцев 14 дней
Сообщений:
387

Travel Man: 48 Hours in - Seventh Season
Человек-турист: Успеть за 48 часов - Седьмой сезон- Год выхода: 2018
Страна: Великобритания
Жанр: комедия
Продолжительность: ~23 мин
Перевод: Профессиональный (двухголосый закадровый) Ozz-Режиссер: Ричард Айоади
В ролях: Ричард Айоади, Стивен Мэнган, Ноэль Филдинг, Крис О`Дауд и др.-Описание: Актёр и режиссёр Ричард Айоади приглашает вас провести выходные в лучших городах мира. Его спутниками станут коллеги по цеху — британские актёры. Самое главное — увидеть всё самое интересное за 48 часов.
- Роли озвучивают: | Ирина Воронова и Алексей Серегин (Ozz.Tv) |
Автор перевода: | Илья Уюсов |
Подготовлено: Ozz-Качество: HDTVRip 720p
Формат: mkv
Видео кодек: x264
Аудио кодек: AC3
Видео: 1280x720 at 25 fps, AVC, 2500 kbps avg, 0.095 b/pixel
Аудио #1: Russian 48 kHz, AC3, 2 channels, 192 kbpss |Ozz|
Аудио #2: English 48 kHz, AC3, 2 channels, 192 kbps |Original|
Субтитры: Russian - (srt)

Список серий

1. Брюссель

MediaInfo

Код:Общее
Уникальный идентификатор : 218448074564011883395587358348187356173 (0xA457919D8278D04AA051DF3BF7BD4C0D)
Полное имя : D:\Travel.Man.48.Hours.In.S07.720p.HDTVRip.Rus.Eng.Ozz\Travel.Man.48.Hours.In.S07E01.720p.HDTVRip.Rus.Eng.Ozz.mkv
Формат : Matroska
Версия формата : Version 4 / Version 2
Размер файла : 439 Мбайт
Продолжительность : 23 м. 46 с.
Общий поток : 2582 Кбит/сек
Название фильма : Travel Man 48 Hours In S07E01 Brussels 720p HDTV x264 BRiTiSHB00Bs
Дата кодирования : UTC 2018-05-03 10:58:10
Программа кодирования : mkvmerge v8.3.0 ('Over the Horizon') 64bit
Библиотека кодирования : libebml v1.3.1 + libmatroska v1.4.2
Видео
Идентификатор : 1
Формат : AVC
Формат/Информация : Advanced Video Codec
Профиль формата : High@L4.1
Настройки формата : CABAC / 5 Ref Frames
Параметр CABAC формата : Да
Параметр RefFrames формата : 5 кадров
Идентификатор кодека : V_MPEG4/ISO/AVC
Продолжительность : 23 м. 45 с.
Битрейт : 2196 Кбит/сек
Ширина : 1280 пикселей
Высота : 720 пикселей
Соотношение сторон : 16:9
Режим частоты кадров : Постоянный
Частота кадров : 25,000 кадров/сек
Цветовое пространство : YUV
Субдискретизация насыщенности : 4:2:0
Битовая глубина : 8 бит
Тип развёртки : Прогрессивная
Бит/(Пиксели*Кадры) : 0.095
Размер потока : 373 Мбайт (85%)
Библиотека кодирования : x264 core 155 r2901 7d0ff22 KETTLE's/BRiTiSHB00Bs' Custom Build (o_o) :o
Настройки программы : cabac=1 / ref=5 / deblock=1:-2:-2 / analyse=0x3:0x113 / me=umh / subme=9 / psy=1 / psy_rd=1.00:0.00 / mixed_ref=1 / me_range=16 / chroma_me=1 / trellis=2 / 8x8dct=1 / cqm=0 / deadzone=21,11 / fast_pskip=1 / chroma_qp_offset=-2 / threads=12 / lookahead_threads=1 / sliced_threads=0 / nr=0 / decimate=1 / interlaced=0 / bluray_compat=0 / constrained_intra=0 / bframes=5 / b_pyramid=2 / b_adapt=1 / b_bias=0 / direct=3 / weightb=1 / open_gop=0 / weightp=2 / keyint=250 / keyint_min=25 / scenecut=40 / intra_refresh=0 / rc_lookahead=50 / rc=crf / mbtree=1 / crf=20.0 / qcomp=0.60 / qpmin=0 / qpmax=69 / qpstep=4 / ip_ratio=1.40 / aq=1:1.00
Язык : English
Default : Да
Forced : Нет
Цветовой диапазон : Limited
Коэффициенты матрицы : BT.709
Аудио #1
Идентификатор : 2
Формат : AC-3
Формат/Информация : Audio Coding 3
Идентификатор кодека : A_AC3
Продолжительность : 23 м. 46 с.
Вид битрейта : Постоянный
Битрейт : 192 Кбит/сек
Каналы : 2 канала
Расположение каналов : Front: L R
Частота : 48,0 КГц
Частота кадров : 31,250 кадров/сек (1536 SPF)
Битовая глубина : 16 бит
Метод сжатия : С потерями
Размер потока : 32,6 Мбайт (7%)
Заголовок : DVO Ozz-tv
Язык : Russian
ServiceKind/String : Complete Main
Default : Да
Forced : Нет
Аудио #2
Идентификатор : 3
Формат : AC-3
Формат/Информация : Audio Coding 3
Идентификатор кодека : A_AC3
Продолжительность : 23 м. 45 с.
Вид битрейта : Постоянный
Битрейт : 192 Кбит/сек
Каналы : 2 канала
Расположение каналов : Front: L R
Частота : 48,0 КГц
Частота кадров : 31,250 кадров/сек (1536 SPF)
Битовая глубина : 16 бит
Метод сжатия : С потерями
Размер потока : 32,6 Мбайт (7%)
Язык : English
ServiceKind/String : Complete Main
Default : Нет
Forced : Нет
Текст
Идентификатор : 4
Формат : UTF-8
Идентификатор кодека : S_TEXT/UTF8
Идентификатор кодека/Информация : UTF-8 Plain Text
Продолжительность : 23 м. 27 с.
Битрейт : 202 бит/сек
ElementCount : 504
Размер потока : 34,7 Кбайт (0%)
Заголовок : Илья Уюсов
Язык : Russian
Default : Нет
Forced : Нет

Screenshots

Внимание! Раздача ведётся путём добавления новых серий

Внимание! Раздача ведётся путём добавления новых серий; при каждом добавлении создаётся новый торрент. Чтобы начать докачку новой серии, пользователям необходимо сделать следующее:
(1) остановить скачивание,
(2) удалить старый торрент у себя из клиента (старые серии удалять не надо),
(3) скачать новый торрент и запустить его у себя в клиенте вместо старого, при этом указать клиенту путь в старую папку куда и должно происходить скачивание новых серий.
Ваш клиент при этом должен произвести хеширование (проверку) старой папки (если не производит сам - помогите ему сделать это), и будет докачивать только те серии которых у вас ещё нет. Старые серии при этом не удаляются, а продолжают раздаваться!
Eсли вы уже удалили старые серии, то предотвратить повторную закачку старых серий можно, отжав галочку в соответствующих местах при запуске нового торрента. По возможности, желательно не удалять старые серии как можно дольше чтобы релизёр не столько продолжал раздавать старые серии, а смог сконцентрироваться на новых.
-
[torrents24.ru].t39480.torrent 
Торрент: Зарегистрирован [ 2018-05-13 15:50 ] · F01E4B95D696BDCE5339BDC63A858748CFDD23E0

Скачать .torrent

Скачать

18 KB

Статус: проверено
Скачан: 0 раз
Размер: 439 MB

Профиль [ЛС]
Показать сообщения:    

Текущее время: 21-Окт 21:46

Часовой пояс: UTC + 3



Вы не можете начинать темы
Вы не можете отвечать на сообщения
Вы не можете редактировать свои сообщения
Вы не можете удалять свои сообщения
Вы не можете голосовать в опросах
Вы не можете прикреплять файлы к сообщениям
Вы можете скачивать файлы