Статистика раздачи
Размер:  3,71 GB   |    Зарегистрирован:  9 дней   |    Скачан:  0 раз

Полного источника не было: Никогда

 
   
 
 

Ведьмочка ®

Пол:
Не указан
Стаж:
3 месяца 14 дней
Сообщений:
315

Съемки игрушечной железной дороги / Modellbahnen vor der Kamera 2
Страна: Германия
Жанр: документальный
Год выпуска: 2006
Продолжительность: 01:07:22
Описание: Это видео посвящается всем поклонникам железных дорог. В частности, в фильме будет представлено 2 макета игрушечной железной дороги: один - Европа, а второй - США... Вспомните детство и почувствуйте радость, наслаждаясь этими замечательными железными машинами!
Дополнительные материалы: Трейлеры
Меню: есть, немецкое
Тип релиза: DVD5
Контейнер: DVD-Video
Видео: PAL 4:3 (720x576(0.739)) MPEG Video, 25,000 кадр/сек, 7664 Кбит/сек
Аудио: (Dolby AC-3, 2 ch) 192 Кбит/сек, 48.0 КГц

Доп. информация по релизу

В доп. материалах перевода и русских субтитров нет!

DVDInfo

Title: Siemki.igrushechnoi.zheleznoi.dorogi.2006.DVD-5
Disk size: 3.71 Gb ( 3 892 024,00 KBytes )
DVD Type: DVD-5
Enabled regions: 1,2,3,4,5,6,7,8
VTS_01:
Title Play Length: 01:07:22
Video: PAL 4:3 (720x576) VBR
Audio (1):
Deutsch (Dolby AC3, 2 ch)
Subtitles (0)
* Menus Information *
VIDEO_TS Menu
Video:
PAL 4:3 (720x576) VBR
Audio (0)
English Language Unit :
Title Menu
VTS_01 Menu
Video:
PAL 4:3 (720x576) VBR
Audio (0)
English Language Unit :
Root Menu

MediaInfo

Общее
Полное имя : Siemki.igrushechnoi.zheleznoi.dorogi.2006.DVD-5\VIDEO_TS\VTS_01_1.VOB
Формат : MPEG-PS
Размер файла : 1023 Мбайт
Продолжительность : 17 м. 50 с.
Режим общего битрейта : Переменный
Общий поток : 8015 Кбит/сек
Библиотека кодирования : encoded by TMPGEnc (ver. 2.53.35.130)
Видео
Идентификатор : 224 (0xE0)
Формат : MPEG Video
Версия формата : Version 2
Профиль формата : Main@Main
Настройки формата : CustomMatrix / BVOP
Параметр BVOP формата : Да
Параметр матрицы формата : Выборочная
Параметр GOP формата : Variable
Структура изображения : Frame
Продолжительность : 17 м. 50 с.
Вид битрейта : Переменный
Битрейт : 7664 Кбит/сек
Максимальный битрейт : 8000 Кбит/сек
Ширина : 720 пикселей
Высота : 576 пикселей
Соотношение сторон : 4:3
Частота кадров : 25,000 кадров/сек
Стандарт вещания : PAL
Цветовое пространство : YUV
Субдискретизация насыщенности : 4:2:0
Битовая глубина : 8 бит
Тип развёртки : Чересстрочная
Порядок развёртки : Нижнее поле первое
Метод сжатия : С потерями
Бит/(Пиксели*Кадры) : 0.739
Временной код первого кадра : 00:00:00:00
Оригинал временного кода : Group of pictures header
GOP, открыто/закрыто : Закрыто
Размер потока : 978 Мбайт (96%)
Библиотека кодирования : TMPGEnc 2.53.35.130
Основные цвета : BT.601 PAL
Характеристики трансфера : BT.470 System B, BT.470 System G
Коэффициенты матрицы : BT.470 System B, BT.470 System G
Аудио
Идентификатор : 189 (0xBD)-128 (0x80)
Формат : AC-3
Формат/Информация : Audio Coding 3
Режим смешивания : DVD-Video
Продолжительность : 17 м. 50 с.
Вид битрейта : Постоянный
Битрейт : 192 Кбит/сек
Каналы : 2 канала
Расположение каналов : Front: L R
Частота : 48,0 КГц
Частота кадров : 31,250 кадров/сек (1536 SPF)
Битовая глубина : 16 бит
Метод сжатия : С потерями
Размер потока : 24,5 Мбайт (2%)
ServiceKind/String : Complete Main

Скриншоты меню

Скриншоты

Скриншоты доп. материалов

[torrents24.ru].t39464.torrent 
Торрент: Зарегистрирован [ 2018-05-13 15:50 ] · 383F47234E53D82EF4D26070D13F63C5DEE7A8B6

Скачать .torrent

Скачать

20 KB

Статус: проверено
Скачан: 0 раз
Размер: 3,71 GB
Профиль [ЛС]
Показать сообщения:    

Текущее время: 23-Май 00:16

Часовой пояс: UTC + 3



Вы не можете начинать темы
Вы не можете отвечать на сообщения
Вы не можете редактировать свои сообщения
Вы не можете удалять свои сообщения
Вы не можете голосовать в опросах
Вы не можете прикреплять файлы к сообщениям
Вы можете скачивать файлы