Статистика раздачи
Размер:  11,52 GB   |    Зарегистрирован:  10 дней   |    Скачан:  0 раз

Полного источника не было: Никогда

 
   
 
 

omniva ®

Пол:
Не указан
Стаж:
3 месяца 14 дней
Сообщений:
257

Звёздные войны: Повстанцы / Star Wars Rebels
Страна: США
Жанр: Фантастика, мультсериал, приключения
Продолжительность серии: 00:22:07
Год выпуска: 2017
Перевод: Профессиональный (дублированный)
Русские субтитры: нет
Режиссёр: Фантастика, мультсериал, приключения
Роли озвучивали: Тейлор Грэй, Дэйв Филони, Ванесса Маршалл, Фредди Принц мл., Стивен Блум, Тия Сиркар, Ди Брэдли Бейкер, Дэвид Ойелоуо, Стефен Стэнтон, Кион Янг
Описание: Для Галактики настали тёмные времена. Поглощая один мир за другим, Империя продолжает наращивать свою мощь. Имперские войска, оккупировавшие отдаленную планету, устанавливают на ней деспотический режим. Но находятся смельчаки, готовые противостоять силам Империи. Это экипаж космического корабля «Призрак»! Команде повстанцев предстоит столкнуться лицом к лицу с новыми грозными противниками и стать героями, способными поднять восстание.
Список серий:
01 Heroes of Mandalore Part 1
02 Heroes of Mandalore Part 2
03 In the Name of the Rebellion Part 1
04 In the Name of the Rebellion Part 2
05 The Occupation
06 Flight of the Defender
07 Kindred
08 Crawler Commandeers
09 Rebel Assault
10 Jedi Night
11 DUME
12 Wolves and a Door
13 A World Between Worlds
14 A Fools Hope
15 Family Reunion and Farewell
Семпл: http://multi-up.com/1197959
Качество: WEB-DL 720p
Формат: MKV
Видео: AVC, 1280X720 (16:9), 23.976 fps, ~4000 Kbps
Аудио 1: AC3, 48 kHz, 2 channels, 192 kbps, rus
Аудио 2: AC3, 48 KHz, 6 ch, 384 kbps, eng
Субтитры: английские

Подробные технические данные

General
Unique ID : 250830649788418599093745878469271394459 (0xBCB439D730320EEFFE84DC27103C989B)
Format : Matroska
Format version : Version 4 / Version 2
File size : 751 MiB
Duration : 22 min 37 s
Overall bit rate : 4 642 kb/s
Encoded date : UTC 2018-04-18 13:39:35
Writing application : mkvmerge v22.0.0 ('At The End Of The World') 64-bit
Writing library : libebml v1.3.5 + libmatroska v1.4.8
Video
ID : 1
Format : AVC
Format/Info : Advanced Video Codec
Format profile : High@L3.1
Format settings, CABAC : No
Format settings, ReFrames : 2 frames
Codec ID : V_MPEG4/ISO/AVC
Duration : 22 min 37 s
Bit rate : 4 064 kb/s
Width : 1 280 pixels
Height : 720 pixels
Display aspect ratio : 16:9
Frame rate mode : Constant
Frame rate : 23.976 (24000/1001) FPS
Color space : YUV
Chroma subsampling : 4:2:0
Bit depth : 8 bits
Scan type : Progressive
Bits/(Pixel*Frame) : 0.184
Stream size : 657 MiB (88%)
Title : H.264
Default : Yes
Forced : No
Color range : Limited
Color primaries : BT.709
Transfer characteristics : BT.709
Matrix coefficients : BT.709
Audio #1
ID : 2
Format : AC-3
Format/Info : Audio Coding 3
Mode extension : CM (complete main)
Format settings, Endianness : Big
Codec ID : A_AC3
Duration : 22 min 37 s
Bit rate mode : Constant
Bit rate : 192 kb/s
Channel(s) : 2 channels
Channel positions : Front: L R
Sampling rate : 48.0 kHz
Frame rate : 31.250 FPS (1536 spf)
Bit depth : 16 bits
Compression mode : Lossy
Stream size : 31.1 MiB (4%)
Language : Russian
Default : Yes
Forced : No
Audio #2
ID : 3
Format : AC-3
Format/Info : Audio Coding 3
Mode extension : CM (complete main)
Format settings, Endianness : Big
Codec ID : A_AC3
Duration : 22 min 37 s
Bit rate mode : Constant
Bit rate : 384 kb/s
Channel(s) : 6 channels
Channel positions : Front: L C R, Side: L R, LFE
Sampling rate : 48.0 kHz
Frame rate : 31.250 FPS (1536 spf)
Bit depth : 16 bits
Compression mode : Lossy
Stream size : 62.1 MiB (8%)
Title : DD5.1
Language : English
Default : No
Forced : No
Text
ID : 4
Format : UTF-8
Codec ID : S_TEXT/UTF8
Codec ID/Info : UTF-8 Plain Text
Duration : 21 min 9 s
Bit rate : 52 b/s
Count of elements : 291
Stream size : 8.08 KiB (0%)
Title : CC
Language : English
Default : No
Forced : No

Скриншоты

Предыдущие и альтернативные раздачи
Благодарности: Спасибо Edalex за предоставленное аудио с дубляжом
[torrents24.ru].t39444.torrent 
Торрент: Зарегистрирован [ 2018-05-12 16:40 ] · 2F38F2DC08BDECA730B0A143B1AEB920848BF6E2

Скачать .torrent

Скачать

60 KB

Статус: проверено
Скачан: 0 раз
Размер: 11,52 GB
Профиль [ЛС]
Показать сообщения:    

Текущее время: 23-Май 00:08

Часовой пояс: UTC + 3



Вы не можете начинать темы
Вы не можете отвечать на сообщения
Вы не можете редактировать свои сообщения
Вы не можете удалять свои сообщения
Вы не можете голосовать в опросах
Вы не можете прикреплять файлы к сообщениям
Вы можете скачивать файлы