Статистика раздачи
Размер:  10,93 GB   |    Зарегистрирован:  13 дней   |    Скачан:  0 раз

Полного источника не было: Никогда

 
   
 
 

Cyber ®

Пол:
Не указан
Стаж:
3 месяца 21 день
Сообщений:
376

The 53rd Academy of Country Music AwardsЖанр: Country
Продолжительность: 02:10:35
Год выпуска: 15.04.2018
Страна: United States / США
Описание:
The 53rd Academy of Country Music Awards was held at the MGM Grand Garden Arena in Las Vegas, Nevada on April 15, 2018. Nominations were announced on March 1, 2018, with Chris Stapleton leading the nominations with five. Reba McEntire returned as host for the first time in six years, making it the fifteenth time she has hosted the show.
Качество: HDTV 1080p
Контейнер: TS
Видео кодек: MPEG2
Video: MPEG2 Video 1920x1080 29.97fps 10,9 mbps
Audio 1: Dolby AC3 48000Hz 6ch 384kbps
Audio 2: Dolby AC3 48000Hz mono 128kbps

Выступления

Kenny Chesney "Get Along"
Maren Morris "Rich"
Chris Young "Losing Sleep"
Bebe Rexha & Florida Georgia Line "Meant to Be"
Brett Young "In Case You Didn't Know"
Alan Jackson & Jon Pardi "Chattahoochee"
Lady Antebellum "Heart Break"
Dierks Bentley "Woman, Amen"
Blake Shelton "I Lived It"
Kane Brown & Lauren Alaina "What Ifs"
Keith Urban & Julia Michaels "Coming Home"
Kelsea Ballerini "I Hate Love Songs"
Jason Aldean "You Make It Easy"
Miranda Lambert "Keeper of the Flame"
Little Big Town "Rocket Man" (A Tribute to Elton John)
Toby Keith & Blake Shelton "Should've Been a Cowboy"
Midland "Drinkin' Problem"
Carrie Underwood "Cry Pretty"
Dan + Shay "Tequila"
Darius Rucker "For the First Time"
Thomas Rhett "Marry Me"
Luke Bryan "Most People Are Good"
Lauren Alaina "Doin' Fine"
Reba McEntire & Kelly Clarkson "Does He Love You"
Chris Janson "Redneck Life"

Скриншоты


MediaInfo

Общее
Формат : MPEG-TS
Размер файла : 10,9 Гбайт
Продолжительность : 2 ч. 10 м.
Режим общего битрейта : Переменный
Общий поток : 12,0 Мбит/сек
Название фильма : ACMA's
Ограничение по возрасту : TV-PG
Видео
Идентификатор : 7521 (0x1D61)
Идентификатор меню : 1025 (0x401)
Формат : MPEG Video
Версия формата : Version 2
Профиль формата : Main@High
Параметр BVOP формата : Нет
Параметр матрицы формата : По умолчанию
Параметр GOP формата : Variable
Структура изображения : Frame
Идентификатор кодека : 2
Продолжительность : 2 ч. 10 м.
Вид битрейта : Переменный
Битрейт : 10,9 Мбит/сек
Максимальный битрейт : 80,0 Мбит/сек
Ширина : 1920 пикселей
Высота : 1080 пикселей
Соотношение сторон : 16:9
Частота кадров : 29,970 (30000/1001) кадров/сек
Цветовое пространство : YUV
Субдискретизация насыщенности : 4:2:0
Битовая глубина : 8 бит
Тип развёртки : Чересстрочная
Порядок развёртки : Верхнее поле первое
Метод сжатия : С потерями
Бит/(Пиксели*Кадры) : 0.175
Временной код первого кадра : 00:00:00;00
Оригинал временного кода : Group of pictures header
Размер потока : 9,92 Гбайт (91%)
Аудио #1
Идентификатор : 7522 (0x1D62)
Идентификатор меню : 1025 (0x401)
Формат : AC-3
Формат/Информация : Audio Coding 3
Параметр Endianness формата : Big
Идентификатор кодека : 129
Продолжительность : 2 ч. 10 м.
Вид битрейта : Постоянный
Битрейт : 384 Кбит/сек
Каналы : 6 каналов
Расположение каналов : Front: L C R, Side: L R, LFE
Частота : 48,0 КГц
Частота кадров : 31,250 кадров/сек (1536 SPF)
Битовая глубина : 16 бит
Метод сжатия : С потерями
Задержка видео : 2 мс.
Размер потока : 359 Мбайт (3%)
Язык : English
ServiceKind/String : Complete Main
Аудио #2
Идентификатор : 7523 (0x1D63)
Идентификатор меню : 1025 (0x401)
Формат : AC-3
Формат/Информация : Audio Coding 3
Параметр Endianness формата : Big
Идентификатор кодека : 129
Продолжительность : 2 ч. 10 м.
Вид битрейта : Постоянный
Битрейт : 128 Кбит/сек
Каналы : 1 канал
Расположение каналов : Front: C
Частота : 48,0 КГц
Частота кадров : 31,250 кадров/сек (1536 SPF)
Битовая глубина : 16 бит
Метод сжатия : С потерями
Задержка видео : 28 мс.
Размер потока : 120 Мбайт (1%)
Язык : Spanish
ServiceKind/String : Complete Main
Текст #1
Идентификатор : 7521 (0x1D61)-CC1
Идентификатор меню : 1025 (0x401)
Формат : EIA-608
Режим смешивания : A/53 / DTVCC Transport
Режим смешивания, доп. информация : Muxed in Video #1
Продолжительность : 2 ч. 10 м.
Вид битрейта : Постоянный
Размер потока : 0,00 байт (0%)
CaptionServiceName : CC1
Текст #2
Идентификатор : 7521 (0x1D61)-1
Идентификатор меню : 1025 (0x401)
Формат : EIA-708
Режим смешивания : A/53 / DTVCC Transport
Режим смешивания, доп. информация : Muxed in Video #1
Продолжительность : 2 ч. 10 м.
Вид битрейта : Постоянный
Размер потока : 0,00 байт (0%)
[torrents24.ru].t39307.torrent 
Торрент: Зарегистрирован [ 2018-05-12 08:05 ] · 328A03DAEA5C458026D08D3F855AFB98B95A4674

Скачать .torrent

Скачать

55 KB

Статус: проверено
Скачан: 0 раз
Размер: 10,93 GB
Профиль [ЛС]
Показать сообщения:    

Текущее время: 25-Май 17:28

Часовой пояс: UTC + 3



Вы не можете начинать темы
Вы не можете отвечать на сообщения
Вы не можете редактировать свои сообщения
Вы не можете удалять свои сообщения
Вы не можете голосовать в опросах
Вы не можете прикреплять файлы к сообщениям
Вы можете скачивать файлы