Статистика раздачи
Размер:  4,99 GB   |    Зарегистрирован:  12 дней   |    Скачан:  0 раз

Полного источника не было: Никогда

 
   
 
 

Вектор ®

Пол:
Не указан
Стаж:
3 месяца 19 дней
Сообщений:
1045

Нижинский
Nijinsky – A Ballet by John Neumeier- Год выпуска: 2017
Лейбл: C Major Entertainment, NHK, NDR, ARTE
Страна-производитель: Нидерланды, Франция
Жанр: Ballet Moderne, Avantgarde
Продолжительность: 02:10:26Язык: музыкальное сопровождение
Перевод: не требуется
Субтитры: нет
Режиссер/Хореограф: Джон Ноймайер / John Neumeier
Исполнители: Alexandre Riabko (Vaslav Nijinsky), Carolina Aguero (Romola Nijinsky), Patricia Friza (Bronislava Nijinska), Aleix Martinez (Stanislav Nijinsky), Ivan Urban (Serge Diaghilev), Anna Laudere (Eleonora Bereda), Carsten Jung (Thomas Nijinsky), Silvia Azzoni (Tamara Karsavina), Alexandr Trusch (Nijinsky as Harlequin and Le Spectre de la Rose), Marc Jubete (Nijinsky as The Golden Slave and The Faun), Lloyd Riggins (Nijinsky as Petrushka), Jacopo Bellussi (Leonid Massine)
Описание: Музыка Ф. Шопена, Р. Шумана, Н. Римского-Корсакова, Д. Шостаковича. Хореография, декорации и костюмы Дж. Ноймайера. Декорации выполнены по оригинальным эскизам Л. Бакста и А. Бенуа. Балет "Нижинский" о боге танца Вацлаве Нижинском начался для Джона Ноймайера двадцать лет назад с маленького балета "Вацлав", появившегося почти случайно как номер для гала-концерта в Гамбурге, посвященного Сергею Дягилеву. В течение последних десятилетий балет создавался по одному па, движению, сцене. Нижинский стал для Ноймайера нескончаемой темой, триумфальный финал которой был предъявлен на премьере в 2000 году, приуроченной к 50-летней годовщине со дня смерти танцовщика. Хореограф представляет великого танцовщика как живого бога танца. Зрителю напоминают о многих его сценических созданиях: Арлекин из "Карнавала", Призрак розы из одноименного балета, Юноша из "Игр" и, конечно, легендарный Петрушка. Главная тема балета — раздвоение личностей Вацлава и Ромолы Нижинских. Ее трансформация в Нимфу и Зобеидуду, а его — в Фавна и Золотого Раба происходит в отсутствие Дягилева-Шахрияра. (А. Деген, И. Ступников "Балет Ноймайера "Нижинский")
Доп. информация: Hot Bird (13.0°E) ARTE Français HD DVB-S2Качество видео: HDTV 1080i
Формат видео: MKV
Видео: AVC (H.264), 1920х1080 (16:9), 25 fps, ~5100 kbps avg, 8 bit
Аудио: AC3, 2 ch, 48 kHz, 192 kbps

MediaInfo

General
Unique ID : 96078940453754381214235415281449698078 (0x4848217F063E6B7799EE31777D3A031E)
Complete name : [apreder]Nijinsky_A_Ballet_by_John_Neumeier(2017)HDTV.1080i.mkv
Format : Matroska
Format version : Version 2
File size : 4.99 GiB
Duration : 2 h 10 min
Overall bit rate : 5 478 kb/s
Movie name : Nijinsky – A Ballet by John Neumeier
Released date : 2017-00-00
Encoded date : UTC 2018-05-06 14:23:00
Writing application : mkvmerge v23.0.0 ('The Bride Said No') 64-bit
Writing library : libebml v1.3.6 + libmatroska v1.4.9
Cover : Yes
Attachments : cover.jpg / small_cover.jpg
ACTOR : Alexandre Riabko
DIRECTOR : John Neumeier
GENRE : Ballet
KEYWORDS : rutracker.org
LAW_RATING : 16+
Video
ID : 1
Format : AVC
Format/Info : Advanced Video Codec
Format profile : High@L4
Format settings : CABAC / 4 Ref Frames
Format settings, CABAC : Yes
Format settings, RefFrames : 4 frames
Codec ID : V_MPEG4/ISO/AVC
Duration : 2 h 10 min
Bit rate : 5 177 kb/s
Width : 1 920 pixels
Height : 1 080 pixels
Display aspect ratio : 16:9
Frame rate mode : Constant
Frame rate : 25.000 FPS
Standard : Component
Color space : YUV
Chroma subsampling : 4:2:0
Bit depth : 8 bits
Scan type : Interlaced
Scan type, store method : Separated fields
Scan order : Top Field First
Bits/(Pixel*Frame) : 0.100
Stream size : 4.72 GiB (95%)
Default : Yes
Forced : No
Color range : Limited
Color primaries : BT.709
Transfer characteristics : BT.709
Matrix coefficients : BT.709
Audio
ID : 2
Format : AC-3
Format/Info : Audio Coding 3
Codec ID : A_AC3
Duration : 2 h 10 min
Bit rate mode : Constant
Bit rate : 192 kb/s
Channel(s) : 2 channels
Channel positions : Front: L R
Sampling rate : 48.0 kHz
Frame rate : 31.250 FPS (1536 SPF)
Bit depth : 16 bits
Compression mode : Lossy
Stream size : 179 MiB (4%)
Language : French
Service kind : Complete Main
Default : Yes
Forced : No

Скриншоты


Резервные скриншоты


- [4'172]
[torrents24.ru].t39173.torrent 
Торрент: Зарегистрирован [ 2018-05-10 15:45 ] · CC778267BFF59A06A781C8D7826A1F1BF99C86F3

Скачать .torrent

Скачать

50 KB

Статус: проверено
Скачан: 0 раз
Размер: 4,99 GB
Профиль [ЛС]
Показать сообщения:    

Текущее время: 23-Май 00:32

Часовой пояс: UTC + 3



Вы не можете начинать темы
Вы не можете отвечать на сообщения
Вы не можете редактировать свои сообщения
Вы не можете удалять свои сообщения
Вы не можете голосовать в опросах
Вы не можете прикреплять файлы к сообщениям
Вы можете скачивать файлы