Статистика раздачи
Размер:  1,49 GB   |    Зарегистрирован:  4 месяца 16 дней   |    Скачан:  2 раза

Полного источника не было: 8 дней

 
   
 
 

jana ®

Пол:
Не указан
Стаж:
7 месяцев 17 дней
Сообщений:
544

Рви Меха Оркестр (Новосибирск) / Discography (4 CD) - 2007-2013
Количество релизов (альбомов): 4
Жанр: Ska
Страна: Russia
Аудиокодек: FLAC
Тип рипа: image+.cue
Битрейт аудио: lossless

Об исполнителе (группе)

Цитата с официального ресурса группы - "Российская музыкальная группа из Новосибирска. Известна, в частности, горячим коктейлем Балканской, восточно-европейской музыки, ска, латино и реггей. Острая сатира и мат в текстах делают звук истинно праздничным."

2007 Моряки и Олигархи

Страна-производитель диска: Russia
Год издания диска: 2007
Продолжительность: 50:55
Источник: собственный рип
Наличие сканов в содержимом раздачи: да
Треклист:
01. Шашлычок [3:44]
02. Небо грозило бедой [3:12]
03. Мечта [3:58]
04. Прозрачное небо [4:45]
05. Кавказ [3:55]
06. Моряки и олигархи [3:40]
07. Мобильный телефон [6:02]
08. Маньяк [3:40]
09. Лёд [5:46]
10. Маракасы [4:35]
11. Снег [3:35]
12. Дорога [4:04]
Bonus
13. Моряки И Олигархи (Video Clip)
-

Лог создания рипа

Exact Audio Copy V1.3 from 2. September 2016
Отчёт EAC об извлечении, выполненном 11. августа 2017, 23:37
Рви Меха Оркестр / Моряки и Олигархи
Дисковод: ASUS SDRW-08D2S-U Adapter: 1 ID: 1
Режим чтения : Достоверность
Использование точного потока : Да
Отключение кэша аудио : Да
Использование указателей C2 : Нет
Коррекция смещения при чтении : 6
Способность читать области Lead-in и Lead-out : Нет
Заполнение пропущенных сэмплов тишиной : Да
Удаление блоков с тишиной в начале и конце : Нет
При вычислениях CRC использовались нулевые сэмплы : Да
Интерфейс : Встроенный Win32-интерфейс для Win NT/2000
Выходной формат : Пользовательский кодировщик
Выбранный битрейт : 1024 kBit/s
Качество : Высокий
Добавление ID3-тега : Нет
Утилита сжатия : C:\Program Files\Exact Audio Copy\FLAC\FLAC.EXE
Дополнительные параметры : -0 -V -T "ARTIST=%artist%" -T "ALBUM=%albumtitle%" -T "DATE=%year%" -T "GENRE=
%genre%" -T "COMMENT=%comment%" -T "ALBUMARTIST=%albuminterpret%" -T "DISCNUMBER=%cdnumber%" -T
"TOTALDISCS=%totalcds%" -T "TOTALTRACKS=%numtracks%" %hascover%--picture="%coverfile%"%hascover% %source% -o
%dest%
TOC извлечённого CD
Трек | Старт | Длительность | Начальный сектор | Конечный сектор
---------------------------------------------------------------------
1 | 0:00.00 | 3:44.06 | 0 | 16805
2 | 3:44.06 | 3:11.51 | 16806 | 31181
3 | 6:55.57 | 3:58.31 | 31182 | 49062
4 | 10:54.13 | 4:44.70 | 49063 | 70432
5 | 15:39.08 | 3:55.06 | 70433 | 88063
6 | 19:34.14 | 3:39.65 | 88064 | 104553
7 | 23:14.04 | 6:01.54 | 104554 | 131682
8 | 29:15.58 | 3:40.37 | 131683 | 148219
9 | 32:56.20 | 5:45.51 | 148220 | 174145
10 | 38:41.71 | 4:34.54 | 174146 | 194749
11 | 43:16.50 | 3:34.45 | 194750 | 210844
12 | 46:51.20 | 4:03.53 | 210845 | 229122
13 | 53:26.73 | 12:11.00 | 240523 | 295347
Характеристики диапазона извлечения и сообщения об ошибках
Выбранный диапазон
Имя файла J:\_Music\Рви Меха Оркестр\2007 - Рви Меха Оркестр - Моряки и Олигархи.wav
Пиковый уровень 100.0 %
Скорость извлечения 4.6 X
Качество диапазона 100.0 %
CRC копии 3FE90DC1
Копирование... OK
Ошибок не произошло
AccurateRip: сводка
Трек 1 отсутствует в базе данных
Трек 2 отсутствует в базе данных
Трек 3 отсутствует в базе данных
Трек 4 отсутствует в базе данных
Трек 5 отсутствует в базе данных
Трек 6 отсутствует в базе данных
Трек 7 отсутствует в базе данных
Трек 8 отсутствует в базе данных
Трек 9 отсутствует в базе данных
Трек 10 отсутствует в базе данных
Трек 11 отсутствует в базе данных
Трек 12 отсутствует в базе данных
Ни одного трека нет в базе AccurateRip
Конец отчёта
==== Контрольная сумма отчёта 8DBCB17C9984ACD9F960AED35B1D78F5069EE3AE66B08979DC61763C3A232EE6 ====

Содержание индексной карты (.CUE)

REM GENRE Ska
REM DATE 2007
REM DISCID C30F610D
REM COMMENT "ExactAudioCopy v1.3"
PERFORMER "Рви Меха Оркестр"
TITLE "Моряки и Олигархи"
FILE "2007 - Рви Меха Оркестр - Моряки и Олигархи.flac" WAVE
TRACK 01 AUDIO
TITLE "Шашлычок"
PERFORMER "Рви Меха Оркестр"
INDEX 01 00:00:00
TRACK 02 AUDIO
TITLE "Небо грозило бедой"
PERFORMER "Рви Меха Оркестр"
INDEX 01 03:44:06
TRACK 03 AUDIO
TITLE "Мечта"
PERFORMER "Рви Меха Оркестр"
INDEX 01 06:55:57
TRACK 04 AUDIO
TITLE "Прозрачное небо"
PERFORMER "Рви Меха Оркестр"
INDEX 01 10:54:13
TRACK 05 AUDIO
TITLE "Кавказ"
PERFORMER "Рви Меха Оркестр"
INDEX 01 15:39:08
TRACK 06 AUDIO
TITLE "Моряки и олигархи"
PERFORMER "Рви Меха Оркестр"
INDEX 01 19:34:14
TRACK 07 AUDIO
TITLE "Мобильный телефон"
PERFORMER "Рви Меха Оркестр"
INDEX 01 23:14:04
TRACK 08 AUDIO
TITLE "Маньяк"
PERFORMER "Рви Меха Оркестр"
INDEX 01 29:15:58
TRACK 09 AUDIO
TITLE "Лёд"
PERFORMER "Рви Меха Оркестр"
INDEX 01 32:56:20
TRACK 10 AUDIO
TITLE "Маракасы"
PERFORMER "Рви Меха Оркестр"
INDEX 01 38:41:71
TRACK 11 AUDIO
TITLE "Снег"
PERFORMER "Рви Меха Оркестр"
INDEX 01 43:16:50
TRACK 12 AUDIO
TITLE "Дорога"
PERFORMER "Рви Меха Оркестр"
INDEX 01 46:51:20

Моряки И Олигархи.avi - отчёт MediaInfo

Общее
Полное имя : D:\Моряки И Олигархи.avi
Формат : AVI
Формат/Информация : Audio Video Interleave
Размер файла : 107 Мбайт
Продолжительность : 3 м. 39 с.
Общий поток : 4064 Кбит/сек
Видео
Идентификатор : 0
Формат : MPEG-4 Visual
Параметр BVOP формата : 1
Параметр QPel формата : Нет
Параметр GMC формата : Без точки перехода
Параметр матрицы формата : Default (H.263)
Режим смешивания : Сжатый битовый поток
Идентификатор кодека : DX50
Идентификатор кодека/Подсказка : DivX 5
Продолжительность : 3 м. 39 с.
Битрейт : 4000 Кбит/сек
Ширина : 720 пикселей
Высота : 576 пикселей
Соотношение сторон : 5:4
Частота кадров : 25,000 кадров/сек
Стандарт вещания : PAL
Цветовое пространство : YUV
Субдискретизация насыщенности : 4:2:0
Битовая глубина : 8 бит
Тип развёртки : Чересстрочная
Порядок развёртки : Верхнее поле первое
Метод сжатия : С потерями
Бит/(Пиксели*Кадры) : 0.386
Размер потока : 103 Мбайт (97%)
Библиотека кодирования : DivX 5.0.5 Beta(Tahanea) (UTC 2003-01)
Аудио
Идентификатор : 1
Формат : MPEG Audio
Версия формата : Version 1
Профиль формата : Layer 3
Идентификатор кодека : 55
Идентификатор кодека/Подсказка : MP3
Продолжительность : 3 м. 39 с.
Вид битрейта : Постоянный
Битрейт : 128 Кбит/сек
Каналы : 2 канала
Частота : 48,0 КГц
Метод сжатия : С потерями
Размер потока : 3,36 Мбайт (3%)
Выравнивание : Разделение по промежуткам
Продолжительность промежутка : 500 мс. (12,50 видеокадров)
Время предзагрузки промежутка : 750 мс.

Моряки И Олигархи.avi - скриншоты

Лог проверки качества

-----------------------
DON'T MODIFY THIS FILE
-----------------------
PERFORMER: auCDtect Task Manager, ver. 1.6.0 RC1 build 1.6.0.1
Copyright (c) 2008-2010 y-soft. All rights reserved
http://y-soft.org
ANALYZER: auCDtect: CD records authenticity detector, version 0.8.2
Copyright (c) 2004 Oleg Berngardt. All rights reserved.
Copyright (c) 2004 Alexander Djourik. All rights reserved.
FILE: 2007 - Рви Меха Оркестр - Моряки и Олигархи.flac
Size: 390040897 Hash: 1468103DA4491441A1078BEDA42286AC Accuracy: -m0
Conclusion: CDDA 99%
Signature: B310765566ABF367684A19D2C7A9EFDD3DD2A015

Скриншот спектра частот

2009 Ключ на 32

Страна-производитель диска: Russia
Год издания диска: 2009
Продолжительность: 34:14
Источник: собственный рип
Наличие сканов в содержимом раздачи: да
Треклист:
01. Сантехник [3:04]
02. Рэггей [4:22]
03. На Оби [3:36]
04. Беня Ладин [4:39]
05. Остров [2:13]
06. Ключ на 32 [2:16]
07. Девушка из ПТУ [4:07]
08. Лето [2:20]
09. Медведы [3:06]
10. Мотороллер [2:08]
Bonus
11. Здрасте, дорогие [2:22]
-

Лог создания рипа

Exact Audio Copy V1.3 from 2. September 2016
Отчёт EAC об извлечении, выполненном 11. августа 2017, 23:10
Рви Меха Оркестр / Ключ на 32
Дисковод: ASUS SDRW-08D2S-U Adapter: 1 ID: 1
Режим чтения : Достоверность
Использование точного потока : Да
Отключение кэша аудио : Да
Использование указателей C2 : Нет
Коррекция смещения при чтении : 6
Способность читать области Lead-in и Lead-out : Нет
Заполнение пропущенных сэмплов тишиной : Да
Удаление блоков с тишиной в начале и конце : Нет
При вычислениях CRC использовались нулевые сэмплы : Да
Интерфейс : Встроенный Win32-интерфейс для Win NT/2000
Выходной формат : Пользовательский кодировщик
Выбранный битрейт : 1024 kBit/s
Качество : Высокий
Добавление ID3-тега : Нет
Утилита сжатия : C:\Program Files\Exact Audio Copy\FLAC\FLAC.EXE
Дополнительные параметры : -0 -V -T "ARTIST=%artist%" -T "ALBUM=%albumtitle%" -T "DATE=%year%" -T "GENRE=
%genre%" -T "COMMENT=%comment%" -T "ALBUMARTIST=%albuminterpret%" -T "DISCNUMBER=%cdnumber%" -T
"TOTALDISCS=%totalcds%" -T "TOTALTRACKS=%numtracks%" %hascover%--picture="%coverfile%"%hascover% %source% -o
%dest%
TOC извлечённого CD
Трек | Старт | Длительность | Начальный сектор | Конечный сектор
---------------------------------------------------------------------
1 | 0:00.00 | 3:04.37 | 0 | 13836
2 | 3:04.37 | 4:22.03 | 13837 | 33489
3 | 7:26.40 | 3:36.14 | 33490 | 49703
4 | 11:02.54 | 4:39.16 | 49704 | 70644
5 | 15:41.70 | 2:12.54 | 70645 | 80598
6 | 17:54.49 | 2:15.71 | 80599 | 90794
7 | 20:10.45 | 4:07.32 | 90795 | 109351
8 | 24:18.02 | 2:20.22 | 109352 | 119873
9 | 26:38.24 | 3:05.48 | 119874 | 133796
10 | 29:43.72 | 2:08.20 | 133797 | 143416
11 | 31:52.17 | 2:21.45 | 143417 | 154036
Характеристики диапазона извлечения и сообщения об ошибках
Выбранный диапазон
Имя файла J:\_Music\Рви Меха Оркестр\2009 - Рви Меха Оркестр - Ключ на 32.wav
Пиковый уровень 100.0 %
Скорость извлечения 1.8 X
Качество диапазона 100.0 %
CRC копии 62402839
Копирование... OK
Ошибок не произошло
AccurateRip: сводка
Трек 1 отсутствует в базе данных
Трек 2 отсутствует в базе данных
Трек 3 отсутствует в базе данных
Трек 4 отсутствует в базе данных
Трек 5 отсутствует в базе данных
Трек 6 отсутствует в базе данных
Трек 7 отсутствует в базе данных
Трек 8 отсутствует в базе данных
Трек 9 отсутствует в базе данных
Трек 10 отсутствует в базе данных
Трек 11 отсутствует в базе данных
Ни одного трека нет в базе AccurateRip
Конец отчёта
==== Контрольная сумма отчёта 80D2754727441EC8670894BEF03E1AE5452128FF94B6B90D5703144EF77BF91E ====

Содержание индексной карты (.CUE)

REM GENRE Ska
REM DATE 2009
REM DISCID 8B08050B
REM COMMENT "ExactAudioCopy v1.3"
PERFORMER "Рви Меха Оркестр"
TITLE "Ключ на 32"
FILE "2009 - Рви Меха Оркестр - Ключ на 32.flac" WAVE
TRACK 01 AUDIO
TITLE "Сантехник"
PERFORMER "Рви Меха Оркестр"
INDEX 01 00:00:00
TRACK 02 AUDIO
TITLE "Рэггей"
PERFORMER "Рви Меха Оркестр"
INDEX 00 03:02:37
INDEX 01 03:04:37
TRACK 03 AUDIO
TITLE "На Оби"
PERFORMER "Рви Меха Оркестр"
INDEX 00 07:24:40
INDEX 01 07:26:40
TRACK 04 AUDIO
TITLE "Беня Ладин"
PERFORMER "Рви Меха Оркестр"
INDEX 01 11:02:54
TRACK 05 AUDIO
TITLE "Остров"
PERFORMER "Рви Меха Оркестр"
INDEX 00 15:39:70
INDEX 01 15:41:70
TRACK 06 AUDIO
TITLE "Ключ на 32"
PERFORMER "Рви Меха Оркестр"
INDEX 00 17:52:49
INDEX 01 17:54:49
TRACK 07 AUDIO
TITLE "Девушка из ПТУ"
PERFORMER "Рви Меха Оркестр"
INDEX 00 20:08:45
INDEX 01 20:10:45
TRACK 08 AUDIO
TITLE "Лето"
PERFORMER "Рви Меха Оркестр"
INDEX 00 24:16:02
INDEX 01 24:18:02
TRACK 09 AUDIO
TITLE "Медведы"
PERFORMER "Рви Меха Оркестр"
INDEX 00 26:36:24
INDEX 01 26:38:24
TRACK 10 AUDIO
TITLE "Мотороллер"
PERFORMER "Рви Меха Оркестр"
INDEX 00 29:41:72
INDEX 01 29:43:72
TRACK 11 AUDIO
TITLE "БОНУС: Здрасте, дорогие"
PERFORMER "Рви Меха Оркестр"
INDEX 00 31:50:17
INDEX 01 31:52:17

Лог проверки качества

-----------------------
DON'T MODIFY THIS FILE
-----------------------
PERFORMER: auCDtect Task Manager, ver. 1.6.0 RC1 build 1.6.0.1
Copyright (c) 2008-2010 y-soft. All rights reserved
http://y-soft.org
ANALYZER: auCDtect: CD records authenticity detector, version 0.8.2
Copyright (c) 2004 Oleg Berngardt. All rights reserved.
Copyright (c) 2004 Alexander Djourik. All rights reserved.
FILE: 2009 - Рви Меха Оркестр - Ключ на 32.flac
Size: 282209415 Hash: F057B439C91D6258265039FBF3B59222 Accuracy: -m0
Conclusion: CDDA 100%
Signature: 543FA4DACA5724ECEF694EF717BB44EE7891FAEA

Скриншот спектра частот

2011 10 оборотов

Страна-производитель диска: Russia
Год издания диска: 2011
Продолжительность: 37:18
Источник: собственный рип
Наличие сканов в содержимом раздачи: да
Треклист:
01. Одесса [2:52]
02. Клубная [2:53]
03. Уг [2:12]
04. Весна [2:18]
05. Шофер [3:23]
06. Дядя Вася [2:37]
07. Время [5:47]
08. Gipsy dance [2:27]
09. Парашютисты [4:08]
10. Мерри Попинс [2:12]
11. Ракия [3:25]
12. Манеа [3:05]
-

Лог создания рипа

Exact Audio Copy V1.3 from 2. September 2016
Отчёт EAC об извлечении, выполненном 11. августа 2017, 23:52
Рви Меха Оркестр / 10 оборотов
Дисковод: ASUS SDRW-08D2S-U Adapter: 1 ID: 1
Режим чтения : Достоверность
Использование точного потока : Да
Отключение кэша аудио : Да
Использование указателей C2 : Нет
Коррекция смещения при чтении : 6
Способность читать области Lead-in и Lead-out : Нет
Заполнение пропущенных сэмплов тишиной : Да
Удаление блоков с тишиной в начале и конце : Нет
При вычислениях CRC использовались нулевые сэмплы : Да
Интерфейс : Встроенный Win32-интерфейс для Win NT/2000
Выходной формат : Пользовательский кодировщик
Выбранный битрейт : 1024 kBit/s
Качество : Высокий
Добавление ID3-тега : Нет
Утилита сжатия : C:\Program Files\Exact Audio Copy\FLAC\FLAC.EXE
Дополнительные параметры : -0 -V -T "ARTIST=%artist%" -T "ALBUM=%albumtitle%" -T "DATE=%year%" -T "GENRE=
%genre%" -T "COMMENT=%comment%" -T "ALBUMARTIST=%albuminterpret%" -T "DISCNUMBER=%cdnumber%" -T
"TOTALDISCS=%totalcds%" -T "TOTALTRACKS=%numtracks%" %hascover%--picture="%coverfile%"%hascover% %source% -o
%dest%
TOC извлечённого CD
Трек | Старт | Длительность | Начальный сектор | Конечный сектор
---------------------------------------------------------------------
1 | 0:00.00 | 2:51.41 | 0 | 12865
2 | 2:51.41 | 2:52.69 | 12866 | 25834
3 | 5:44.35 | 2:12.35 | 25835 | 35769
4 | 7:56.70 | 2:17.59 | 35770 | 46103
5 | 10:14.54 | 3:22.46 | 46104 | 61299
6 | 13:37.25 | 2:36.68 | 61300 | 73067
7 | 16:14.18 | 5:46.41 | 73068 | 99058
8 | 22:00.59 | 2:26.67 | 99059 | 110075
9 | 24:27.51 | 4:08.28 | 110076 | 128703
10 | 28:36.04 | 2:11.59 | 128704 | 138587
11 | 30:47.63 | 3:25.31 | 138588 | 153993
12 | 34:13.19 | 3:04.49 | 153994 | 167842
Характеристики диапазона извлечения и сообщения об ошибках
Выбранный диапазон
Имя файла J:\_Music\Рви Меха Оркестр\2011 - Рви Меха Оркестр - 10 оборотов.wav
Пиковый уровень 100.0 %
Скорость извлечения 4.3 X
Качество диапазона 100.0 %
CRC копии 9E163378
Копирование... OK
Ошибок не произошло
AccurateRip: сводка
Трек 1 отсутствует в базе данных
Трек 2 отсутствует в базе данных
Трек 3 отсутствует в базе данных
Трек 4 отсутствует в базе данных
Трек 5 отсутствует в базе данных
Трек 6 отсутствует в базе данных
Трек 7 отсутствует в базе данных
Трек 8 отсутствует в базе данных
Трек 9 отсутствует в базе данных
Трек 10 отсутствует в базе данных
Трек 11 отсутствует в базе данных
Трек 12 отсутствует в базе данных
Ни одного трека нет в базе AccurateRip
Конец отчёта
==== Контрольная сумма отчёта 4A207562B5EE55E9B3AEF780A74787BE8EA3951619A8714C7E3C2749D44C43A6 ====

Содержание индексной карты (.CUE)

REM GENRE Ska
REM DATE 2011
REM DISCID B108BD0C
REM COMMENT "ExactAudioCopy v1.3"
PERFORMER "Рви Меха Оркестр"
TITLE "10 оборотов"
FILE "2011 - Рви Меха Оркестр - 10 оборотов.flac" WAVE
TRACK 01 AUDIO
TITLE "Одесса"
PERFORMER "Рви Меха Оркестр"
INDEX 01 00:00:00
TRACK 02 AUDIO
TITLE "Клубная"
PERFORMER "Рви Меха Оркестр"
INDEX 01 02:51:41
TRACK 03 AUDIO
TITLE "Уг"
PERFORMER "Рви Меха Оркестр"
INDEX 01 05:44:35
TRACK 04 AUDIO
TITLE "Весна"
PERFORMER "Рви Меха Оркестр"
INDEX 01 07:56:70
TRACK 05 AUDIO
TITLE "Шофер"
PERFORMER "Рви Меха Оркестр"
INDEX 01 10:14:54
TRACK 06 AUDIO
TITLE "Дядя Вася"
PERFORMER "Рви Меха Оркестр"
INDEX 01 13:37:25
TRACK 07 AUDIO
TITLE "Время"
PERFORMER "Рви Меха Оркестр"
INDEX 01 16:14:18
TRACK 08 AUDIO
TITLE "Gipsy dance"
PERFORMER "Рви Меха Оркестр"
INDEX 01 22:00:59
TRACK 09 AUDIO
TITLE "Парашютисты"
PERFORMER "Рви Меха Оркестр"
INDEX 01 24:27:51
TRACK 10 AUDIO
TITLE "Мерри Попинс"
PERFORMER "Рви Меха Оркестр"
INDEX 01 28:36:04
TRACK 11 AUDIO
TITLE "Ракия"
PERFORMER "Рви Меха Оркестр"
INDEX 01 30:47:63
TRACK 12 AUDIO
TITLE "Манеа"
PERFORMER "Рви Меха Оркестр"
INDEX 01 34:13:19

Лог проверки качества

-----------------------
DON'T MODIFY THIS FILE
-----------------------
PERFORMER: auCDtect Task Manager, ver. 1.6.0 RC1 build 1.6.0.1
Copyright (c) 2008-2010 y-soft. All rights reserved
http://y-soft.org
ANALYZER: auCDtect: CD records authenticity detector, version 0.8.2
Copyright (c) 2004 Oleg Berngardt. All rights reserved.
Copyright (c) 2004 Alexander Djourik. All rights reserved.
FILE: 2011 - Рви Меха Оркестр - 10 оборотов.flac
Size: 305657887 Hash: D9D9A872984F2B12EA973DC2276176DC Accuracy: -m0
Conclusion: CDDA 100%
Signature: A29CC73DC9E9AB583B1C87C20D8DA7E572A43829

Скриншот спектра частот

2013 Жизнь

Страна-производитель диска: Russia
Год издания диска: 2013
Продолжительность: 59:56
Источник: собственный рип
Наличие сканов в содержимом раздачи: да
Треклист:
01. Русская рулетка [3:15]
02. Панков бригада [2:56]
03. Чёрная кошка, белый кот [3:16]
04. Цыган и смерть [2:38]
05. Танцевальная музыка (cover Че-данс & 1,5 Pavlo) [3:31]
06. Эмигранты [2:29]
07. Танго [3:54]
08. Ё*** жизнь [2:58]
09. Восьмиклассница [3:46]
10. Дельтаплан [4:11]
11. Лимончики [3:37]
12. Дай на маленькую [5:35]
13. Квас [2:42]
14. Новый год [2:39]
15. Прозрачное небо [4:52]
16. Понеслась *** по кочкам [3:31]
17. Саня останется с нами (cover ROKER JOKER) [4:06]
-

Лог создания рипа

Exact Audio Copy V1.3 from 2. September 2016
Отчёт EAC об извлечении, выполненном 12. августа 2017, 0:18
Рви Меха Оркестр / Жизнь
Дисковод: ASUS SDRW-08D2S-U Adapter: 1 ID: 1
Режим чтения : Достоверность
Использование точного потока : Да
Отключение кэша аудио : Да
Использование указателей C2 : Нет
Коррекция смещения при чтении : 6
Способность читать области Lead-in и Lead-out : Нет
Заполнение пропущенных сэмплов тишиной : Да
Удаление блоков с тишиной в начале и конце : Нет
При вычислениях CRC использовались нулевые сэмплы : Да
Интерфейс : Встроенный Win32-интерфейс для Win NT/2000
Выходной формат : Пользовательский кодировщик
Выбранный битрейт : 1024 kBit/s
Качество : Высокий
Добавление ID3-тега : Нет
Утилита сжатия : C:\Program Files\Exact Audio Copy\FLAC\FLAC.EXE
Дополнительные параметры : -0 -V -T "ARTIST=%artist%" -T "ALBUM=%albumtitle%" -T "DATE=%year%" -T "GENRE=
%genre%" -T "COMMENT=%comment%" -T "ALBUMARTIST=%albuminterpret%" -T "DISCNUMBER=%cdnumber%" -T
"TOTALDISCS=%totalcds%" -T "TOTALTRACKS=%numtracks%" %hascover%--picture="%coverfile%"%hascover% %source% -o
%dest%
TOC извлечённого CD
Трек | Старт | Длительность | Начальный сектор | Конечный сектор
---------------------------------------------------------------------
1 | 0:00.00 | 3:15.31 | 0 | 14655
2 | 3:15.31 | 2:56.36 | 14656 | 27891
3 | 6:11.67 | 3:16.13 | 27892 | 42604
4 | 9:28.05 | 2:37.43 | 42605 | 54422
5 | 12:05.48 | 3:30.54 | 54423 | 70226
6 | 15:36.27 | 2:28.43 | 70227 | 81369
7 | 18:04.70 | 3:54.02 | 81370 | 98921
8 | 21:58.72 | 2:57.43 | 98922 | 112239
9 | 24:56.40 | 3:46.34 | 112240 | 129223
10 | 28:42.74 | 4:10.46 | 129224 | 148019
11 | 32:53.45 | 3:36.62 | 148020 | 164281
12 | 36:30.32 | 5:35.07 | 164282 | 189413
13 | 42:05.39 | 2:42.02 | 189414 | 201565
14 | 44:47.41 | 2:38.44 | 201566 | 213459
15 | 47:26.10 | 4:52.03 | 213460 | 235362
16 | 52:18.13 | 3:30.69 | 235363 | 251181
17 | 55:49.07 | 4:06.36 | 251182 | 269667
Характеристики диапазона извлечения и сообщения об ошибках
Выбранный диапазон
Имя файла J:\_Music\Рви Меха Оркестр\2013 - Рви Меха Оркестр - Жизнь.wav
Пиковый уровень 100.0 %
Скорость извлечения 4.7 X
Качество диапазона 99.9 %
CRC копии BB2E8BEA
Копирование... OK
Ошибок не произошло
AccurateRip: сводка
Трек 1 отсутствует в базе данных
Трек 2 отсутствует в базе данных
Трек 3 отсутствует в базе данных
Трек 4 отсутствует в базе данных
Трек 5 отсутствует в базе данных
Трек 6 отсутствует в базе данных
Трек 7 отсутствует в базе данных
Трек 8 отсутствует в базе данных
Трек 9 отсутствует в базе данных
Трек 10 отсутствует в базе данных
Трек 11 отсутствует в базе данных
Трек 12 отсутствует в базе данных
Трек 13 отсутствует в базе данных
Трек 14 отсутствует в базе данных
Трек 15 отсутствует в базе данных
Трек 16 отсутствует в базе данных
Трек 17 отсутствует в базе данных
Ни одного трека нет в базе AccurateRip
Конец отчёта
==== Контрольная сумма отчёта C106C17401BC9A419422B7D959EE8D4AC051B4C0A526FDA6D2D4E2E6AEC9CF3A ====

Содержание индексной карты (.CUE)

REM GENRE Ska
REM DATE 2013
REM DISCID 010E0B11
REM COMMENT "ExactAudioCopy v1.3"
PERFORMER "Рви Меха Оркестр"
TITLE "Жизнь"
FILE "2013 - Рви Меха Оркестр - Жизнь.flac" WAVE
TRACK 01 AUDIO
TITLE "Русская рулетка"
PERFORMER "Рви Меха Оркестр"
INDEX 01 00:00:00
TRACK 02 AUDIO
TITLE "Панков бригада"
PERFORMER "Рви Меха Оркестр"
INDEX 01 03:15:31
TRACK 03 AUDIO
TITLE "Чёрная кошка, белый кот"
PERFORMER "Рви Меха Оркестр"
INDEX 01 06:11:67
TRACK 04 AUDIO
TITLE "Цыган и смерть"
PERFORMER "Рви Меха Оркестр"
INDEX 01 09:28:05
TRACK 05 AUDIO
TITLE "Танцевальная музыка (cover Че-данс & 1,5 Pavlo)"
PERFORMER "Рви Меха Оркестр"
INDEX 01 12:05:48
TRACK 06 AUDIO
TITLE "Эмигранты"
PERFORMER "Рви Меха Оркестр"
INDEX 01 15:36:27
TRACK 07 AUDIO
TITLE "Танго"
PERFORMER "Рви Меха Оркестр"
INDEX 01 18:04:70
TRACK 08 AUDIO
TITLE "Ё*** жизнь"
PERFORMER "Рви Меха Оркестр"
INDEX 01 21:58:72
TRACK 09 AUDIO
TITLE "Восьмиклассница"
PERFORMER "Рви Меха Оркестр"
INDEX 01 24:56:40
TRACK 10 AUDIO
TITLE "Дельтаплан"
PERFORMER "Рви Меха Оркестр"
INDEX 01 28:42:74
TRACK 11 AUDIO
TITLE "Лимончики"
PERFORMER "Рви Меха Оркестр"
INDEX 01 32:53:45
TRACK 12 AUDIO
TITLE "Дай на маленькую"
PERFORMER "Рви Меха Оркестр"
INDEX 01 36:30:32
TRACK 13 AUDIO
TITLE "Квас"
PERFORMER "Рви Меха Оркестр"
INDEX 01 42:05:39
TRACK 14 AUDIO
TITLE "Новый год"
PERFORMER "Рви Меха Оркестр"
INDEX 01 44:47:41
TRACK 15 AUDIO
TITLE "Прозрачное небо"
PERFORMER "Рви Меха Оркестр"
INDEX 01 47:26:10
TRACK 16 AUDIO
TITLE "Понеслась *** по кочкам"
PERFORMER "Рви Меха Оркестр"
INDEX 01 52:18:13
TRACK 17 AUDIO
TITLE "Саня останется с нами (cover ROKER JOKER)"
PERFORMER "Рви Меха Оркестр"
INDEX 01 55:49:07

Лог проверки качества

-----------------------
DON'T MODIFY THIS FILE
-----------------------
PERFORMER: auCDtect Task Manager, ver. 1.6.0 RC1 build 1.6.0.1
Copyright (c) 2008-2010 y-soft. All rights reserved
http://y-soft.org
ANALYZER: auCDtect: CD records authenticity detector, version 0.8.2
Copyright (c) 2004 Oleg Berngardt. All rights reserved.
Copyright (c) 2004 Alexander Djourik. All rights reserved.
FILE: 2013 - Рви Меха Оркестр - Жизнь.flac
Size: 467018779 Hash: 0990A9E4D7B23770CAFE47D19E5B38BB Accuracy: -m0
Conclusion: CDDA 100%
Signature: A2CD6378FA94734D4683B74E739D6BDBFC85BDE2

Скриншот спектра частот

[torrents24.ru].t39078.torrent 
Торрент: Зарегистрирован [ 2018-05-09 16:20 ] · 2554F7AAD96444FDC82737E5D4268774CA9E1BD5

Скачать .torrent

Скачать

20 KB

Статус: проверено
Скачан: 2 раз
Размер: 1,49 GB

Профиль [ЛС]
Показать сообщения:    

Текущее время: 25-Сен 19:48

Часовой пояс: UTC + 3



Вы не можете начинать темы
Вы не можете отвечать на сообщения
Вы не можете редактировать свои сообщения
Вы не можете удалять свои сообщения
Вы не можете голосовать в опросах
Вы не можете прикреплять файлы к сообщениям
Вы можете скачивать файлы