Статистика раздачи
Размер:  365 MB   |    Зарегистрирован:  3 месяца 5 дней   |    Скачан:  0 раз

Полного источника не было: Никогда

 
   
 
 

monster ®

Пол:
Не указан
Стаж:
6 месяцев 5 дней
Сообщений:
678

Kirk • Makin' Moves- Жанр: Hip-Hop
Носитель: CD
Год издания: 1994
Страна исполнителя (группы): USA
Аудиокодек: FLAC (*.flac)
Тип рипа: tracks+.cue
Битрейт аудио: lossless
Продолжительность: 59 минут 33 секунды
Источник (релизер): www.hiphoplossless.com
Наличие сканов в содержимом раздачи: нет (обложка)
Discogs
Треклист:
01. Makin' Moves (4:06)
02. Stay Fresh (4:03)
03. Chill (4:36)
04. Crazy Wild (3:05)
05. Down Low (3:49)
06. The Ghost (4:08)
07. Feel The Boom (4:53)
08. Flippin' It (4:47)
09. Catch The Beat (4:18)
10. Uptown Style (5:13)
11. Tic Toc (3:39)
12. Can't Get With This (4:14)
13. Now Ya' Know (4:25)
14. Down Low ( R E M I X ) (4:16)

Лог создания рипа

Exact Audio Copy V0.99 prebeta 4 from 23. January 2008
EAC extraction logfile from 6. December 2008, 14:54
Kirk / Makin' Moves
Used drive : PIONEER DVD-RW DVR-110D Adapter: 1 ID: 0
Read mode : Secure
Utilize accurate stream : Yes
Defeat audio cache : Yes
Make use of C2 pointers : No
Read offset correction : 48
Overread into Lead-In and Lead-Out : No
Fill up missing offset samples with silence : Yes
Delete leading and trailing silent blocks : No
Null samples used in CRC calculations : Yes
Used interface : Native Win32 interface for Win NT & 2000
Gap handling : Appended to previous track
Used output format : User Defined Encoder
Selected bitrate : 192 kBit/s
Quality : High
Add ID3 tag : No
Command line compressor : C:\Program Files (x86)\Exact Audio Copy\Flac\flac.exe
Additional command line options : -V -8 -T "artist=%a" -T "title=%t" -T "album=%g" -T "date=%y" -T "tracknumber=%n" -T "genre=%m" %s
TOC of the extracted CD
Track | Start | Length | Start sector | End sector
---------------------------------------------------------
1 | 0:00.32 | 4:06.20 | 32 | 18501
2 | 4:06.52 | 4:03.08 | 18502 | 36734
3 | 8:09.60 | 4:36.32 | 36735 | 57466
4 | 12:46.17 | 3:04.68 | 57467 | 71334
5 | 15:51.10 | 3:49.30 | 71335 | 88539
6 | 19:40.40 | 4:07.55 | 88540 | 107119
7 | 23:48.20 | 4:52.42 | 107120 | 129061
8 | 28:40.62 | 4:47.23 | 129062 | 150609
9 | 33:28.10 | 4:17.55 | 150610 | 169939
10 | 37:45.65 | 5:13.37 | 169940 | 193451
11 | 42:59.27 | 3:39.10 | 193452 | 209886
12 | 46:38.37 | 4:13.58 | 209887 | 228919
13 | 50:52.20 | 4:24.70 | 228920 | 248789
14 | 55:17.15 | 4:16.10 | 248790 | 267999
Track 1
Filename D:\EAC\01 - Makin' Moves.wav
Pre-gap length 0:00:02.42
Peak level 100.0 %
Track quality 100.0 %
Test CRC 3766838F
Copy CRC 3766838F
Track not present in AccurateRip database
Copy OK
Track 2
Filename D:\EAC\02 - Stay Fresh.wav
Pre-gap length 0:00:01.36
Peak level 100.0 %
Track quality 100.0 %
Test CRC C97EB38F
Copy CRC C97EB38F
Track not present in AccurateRip database
Copy OK
Track 3
Filename D:\EAC\03 - Chill.wav
Pre-gap length 0:00:01.20
Peak level 100.0 %
Track quality 100.0 %
Test CRC 67E2C16F
Copy CRC 67E2C16F
Track not present in AccurateRip database
Copy OK
Track 4
Filename D:\EAC\04 - Crazy Wild.wav
Pre-gap length 0:00:01.09
Peak level 100.0 %
Track quality 100.0 %
Test CRC 180DEFF1
Copy CRC 180DEFF1
Track not present in AccurateRip database
Copy OK
Track 5
Filename D:\EAC\05 - Down Low.wav
Pre-gap length 0:00:01.36
Peak level 100.0 %
Track quality 100.0 %
Test CRC 87EBFEC6
Copy CRC 87EBFEC6
Track not present in AccurateRip database
Copy OK
Track 6
Filename D:\EAC\06 - The Ghost.wav
Pre-gap length 0:00:02.33
Peak level 100.0 %
Track quality 99.9 %
Test CRC FC4285D4
Copy CRC FC4285D4
Track not present in AccurateRip database
Copy OK
Track 7
Filename D:\EAC\07 - Feel The Boom.wav
Pre-gap length 0:00:01.02
Peak level 100.0 %
Track quality 99.9 %
Test CRC 4B827EC4
Copy CRC 4B827EC4
Track not present in AccurateRip database
Copy OK
Track 8
Filename D:\EAC\08 - Flippin' It.wav
Pre-gap length 0:00:01.25
Peak level 100.0 %
Track quality 100.0 %
Test CRC 6505E0C9
Copy CRC 6505E0C9
Track not present in AccurateRip database
Copy OK
Track 9
Filename D:\EAC\09 - Catch The Beat.wav
Pre-gap length 0:00:02.73
Peak level 99.2 %
Track quality 100.0 %
Test CRC 8054D41F
Copy CRC 8054D41F
Track not present in AccurateRip database
Copy OK
Track 10
Filename D:\EAC\10 - Uptown Style.wav
Pre-gap length 0:00:00.33
Peak level 100.0 %
Track quality 99.9 %
Test CRC 659C6CC9
Copy CRC 659C6CC9
Track not present in AccurateRip database
Copy OK
Track 11
Filename D:\EAC\11 - Tic Toc.wav
Pre-gap length 0:00:01.62
Peak level 100.0 %
Track quality 99.9 %
Test CRC 73DB2ECD
Copy CRC 73DB2ECD
Track not present in AccurateRip database
Copy OK
Track 12
Filename D:\EAC\12 - Can't Get With This.wav
Pre-gap length 0:00:02.05
Peak level 99.7 %
Track quality 100.0 %
Test CRC DD731D79
Copy CRC DD731D79
Track not present in AccurateRip database
Copy OK
Track 13
Filename D:\EAC\13 - Now Ya' Know.wav
Pre-gap length 0:00:01.49
Peak level 100.0 %
Track quality 100.0 %
Test CRC 72B2A127
Copy CRC 72B2A127
Track not present in AccurateRip database
Copy OK
Track 14
Filename D:\EAC\14 - Down Low ( R E M I X ).wav
Pre-gap length 0:00:01.36
Peak level 100.0 %
Track quality 100.0 %
Test CRC E64660D7
Copy CRC E64660D7
Track not present in AccurateRip database
Copy OK
None of the tracks are present in the AccurateRip database
No errors occurred
End of status report

Содержание индексной карты (.CUE)

REM GENRE Hip-Hop
REM DATE 1994
REM DISCID AE0DF50E
REM COMMENT "ExactAudioCopy v0.99pb4"
PERFORMER "Kirk"
TITLE "Makin' Moves"
FILE "01 - Makin' Moves.flac" WAVE
TRACK 01 AUDIO
TITLE "Makin' Moves"
PERFORMER "Kirk"
INDEX 01 00:00:00
FILE "02 - Stay Fresh.flac" WAVE
TRACK 02 AUDIO
TITLE "Stay Fresh"
PERFORMER "Kirk"
INDEX 01 00:00:00
FILE "03 - Chill.flac" WAVE
TRACK 03 AUDIO
TITLE "Chill"
PERFORMER "Kirk"
INDEX 01 00:00:00
FILE "04 - Crazy Wild.flac" WAVE
TRACK 04 AUDIO
TITLE "Crazy Wild"
PERFORMER "Kirk"
INDEX 01 00:00:00
FILE "05 - Down Low.flac" WAVE
TRACK 05 AUDIO
TITLE "Down Low"
PERFORMER "Kirk"
INDEX 01 00:00:00
FILE "06 - The Ghost.flac" WAVE
TRACK 06 AUDIO
TITLE "The Ghost"
PERFORMER "Kirk"
INDEX 01 00:00:00
FILE "07 - Feel The Boom.flac" WAVE
TRACK 07 AUDIO
TITLE "Feel The Boom"
PERFORMER "Kirk"
INDEX 01 00:00:00
FILE "08 - Flippin' It.flac" WAVE
TRACK 08 AUDIO
TITLE "Flippin' It"
PERFORMER "Kirk"
INDEX 01 00:00:00
FILE "09 - Catch The Beat.flac" WAVE
TRACK 09 AUDIO
TITLE "Catch The Beat"
PERFORMER "Kirk"
INDEX 01 00:00:00
FILE "10 - Uptown Style.flac" WAVE
TRACK 10 AUDIO
TITLE "Uptown Style"
PERFORMER "Kirk"
INDEX 01 00:00:00
FILE "11 - Tic Toc.flac" WAVE
TRACK 11 AUDIO
TITLE "Tic Toc"
PERFORMER "Kirk"
INDEX 01 00:00:00
FILE "12 - Can't Get With This.flac" WAVE
TRACK 12 AUDIO
TITLE "Can't Get With This"
PERFORMER "Kirk"
INDEX 01 00:00:00
FILE "13 - Now Ya' Know.flac" WAVE
TRACK 13 AUDIO
TITLE "Now Ya' Know"
PERFORMER "Kirk"
INDEX 01 00:00:00
FILE "14 - Down Low ( R E M I X ).flac" WAVE
TRACK 14 AUDIO
TITLE "Down Low ( R E M I X )"
PERFORMER "Kirk"
INDEX 01 00:00:00

Лог проверки качества

AUDIOCHECKER v2.0 beta (build 457) - by Dester - opdester@freemail.hu
~~~~~~~~~~~~~~~~~~~~~~~~~~~~~~~~~~
-=== DO NOT EDIT THIS FILE! ===-
Path: ...\Kirk -(1994)- Makin' Moves
01 -=- 01 - Makin' Moves.flac -=- CDDA (100%)
02 -=- 02 - Stay Fresh.flac -=- MPEG (79%)
03 -=- 03 - Chill.flac -=- CDDA (99%)
04 -=- 04 - Crazy Wild.flac -=- CDDA (100%)
05 -=- 05 - Down Low.flac -=- CDDA (100%)
06 -=- 06 - The Ghost.flac -=- CDDA (100%)
07 -=- 07 - Feel The Boom.flac -=- CDDA (100%)
08 -=- 08 - Flippin' It.flac -=- MPEG (95%)
09 -=- 09 - Catch The Beat.flac -=- CDDA (100%)
10 -=- 10 - Uptown Style.flac -=- MPEG (95%)
11 -=- 11 - Tic Toc.flac -=- ERROR
12 -=- 12 - Can't Get With This.flac -=- CDDA (100%)
13 -=- 13 - Now Ya' Know.flac -=- CDDA (100%)
14 -=- 14 - Down Low ( R E M I X ).flac -=- ERROR
Summary 77,50% CDDA
12184884
[torrents24.ru].t39007.torrent 
Торрент: Зарегистрирован [ 2018-05-09 16:20 ] · 38CC6F29F1494847F2247BBC72BEEB6EF2140780

Скачать .torrent

Скачать

16 KB

Статус: проверено
Скачан: 0 раз
Размер: 365 MB

Профиль [ЛС]
Показать сообщения:    

Текущее время: 14-Авг 17:06

Часовой пояс: UTC + 3



Вы не можете начинать темы
Вы не можете отвечать на сообщения
Вы не можете редактировать свои сообщения
Вы не можете удалять свои сообщения
Вы не можете голосовать в опросах
Вы не можете прикреплять файлы к сообщениям
Вы можете скачивать файлы