Статистика раздачи
Размер:  1,34 GB   |    Зарегистрирован:  19 дней   |    Скачан:  0 раз

Полного источника не было: Никогда

 
   
 
 

Ueee ®

Пол:
Не указан
Стаж:
3 месяца 12 дней
Сообщений:
728

Он и Она
Название театра: Национальный академический драматический театр им. Максима Горького, Минск
Страна: Республика Беларусь
Жанр: Драма
Год выпуска: 29.06.2017
Продолжительность: 01:12:35
Перевод: Не требуется
Язык: Русский
Режиссёр: народный артист Беларуси Борис Луценко
В ролях:
Он – народный артист Беларуси Борис Луценко
Она – народная артистка Беларуси Белла Масумян
Описание:
Смех... Слёзы... Любовь...
По идее пьесы «Игра в джин» Д. Кобурна
Где-то на земном шаре случайно встретились двое... Он – может быть, Вильям, но не Шекспир; Она – может быть, Елизавета, но не королева английская…
История о том, как Она с помощью веры в Господа и молитвы преодолела Его желание уйти из этой жизни и возродила истинное значение слова «Любовь».
Доп. информация:
Режиссёр-постановщик – народный артист Беларуси Борис Луценко
Художники-постановщики – Вениамин Маршак, Ольга Тихонова
Композитор и музыкальный оформитель – Олег Оловников
Ассистент режиссёра – Дмитрий Мазуро
Премьера спектакля состоялась 1 ноября 2014 года

Запись потока *.ts с наземного цифрового телеканала "Беларусь 3".
Благодарность: за помощь с недостающим материалом Bartimeyse и PavelDAS. Обоим большое спасибо!
Релиз:
Мои раздачи:

Мои раздачи

Все
http://rutracker.org/forum/tracker.php?rid=9778909
http://BY.rutracker.org/forum/tracker.php?rid=9778909
http://UA.rutracker.org/forum/tracker.php?rid=9778909
Избранные:
1) Я - гражданин Республики Беларусь. Архитектурные и художественные шедевры Беларуси [2008, RUS]
http://rutracker.org/forum/viewtopic.php?t=3516744
2) Государственная политика [Документальный цикл, TVRip, 2010]
http://rutracker.org/forum/viewtopic.php?t=3321565
3) Беларусь. Взгляд извне [2005, документальный сериал, TVRip]
http://rutracker.org/forum/viewtopic.php?t=3543820
4) Трилогия: Белая Русь, Чарующая Беларусь, Путешествие из Беларуси в Россию [2010-2011 г., Документальный, DVD5]
http://rutracker.org/forum/viewtopic.php?t=3442053
5) Правда о западной «демократии» и белорусском «тоталитаризме» [Беларусь 2011, Документальное расследование]
http://rutracker.org/forum/viewtopic.php?t=3523672
6) Задорнов в Беларуси. Беларусь - это значительно улучшенный Советский Союз [2010-2011 г., Интервью, TVRip]
http://rutracker.org/forum/viewtopic.php?t=3512134
7) [Журнал] Экономика Беларуси (16 номеров) [2007-2010, PDF, RUS]
http://rutracker.org/forum/viewtopic.php?t=3309120
8) Армия - Журнал Вооруженных сил республики Беларусь. (81 номер) [1996-2010, PDF, RUS]
http://rutracker.org/forum/viewtopic.php?t=3277264
9) Страна Моя, Беларусь! Заставка телеканал СТВ Минск. Белоруссия, Мир, Несвиж и др. zweizwei [2010, рекламный ролик, заставка, HD-Video]
http://rutracker.org/forum/viewtopic.php?t=3480687
10) Радзивиллы Несвижские владения Костел Божьего тела [2011 г., хроникально-документальный, TVRip]
http://rutracker.org/forum/viewtopic.php?t=3410980
11) Полёты на воздушном шаре. Новогрудок. Беларусь. zweizwei / Belarus Novogrudok [2010, HD-Video]
http://rutracker.org/forum/viewtopic.php?t=3380821
12) Полёты на воздушном шаре / Беларусь, Белоруссия, Гродно, Святск. zweizwei [2009, HD-Video]
http://rutracker.org/forum/viewtopic.php?t=3380756
13) Вид Гродно с высоты полета (Беларусь)/Выгляд Гродна з вышыні палёту паветранага шара [222]
http://rutracker.org/forum/viewtopic.php?t=3369388
14) Анархия Прямое действие. Беларусь [2011, документальный фильм, TVRip]
http://rutracker.org/forum/viewtopic.php?t=3485756
15) Психология девиации (АТН, Беларусь ТВ) [2010, Информационно-аналитические и общественно-политическиепередачи, TVRip]
http://rutracker.org/forum/viewtopic.php?t=3542424
16) Боль моя - Чернобыль (Беларусь, Коллектив Беларусь ТВ) [2011, Документлный, TVRip]
http://rutracker.org/forum/viewtopic.php?t=3546253
17) Попов хутор и его обитатели Русс ТВ [2011, Документальный, DVD5]
http://rutracker.org/forum/viewtopic.php?t=3514286
и сотни других...
Качество: DVB
Контейнер: TS
Видео кодек: H.264
Аудио кодек: MP2
Видео: MPEG4 Video (H264) 720(785)x576 (49:36) 25fps, 2 256 kb/s
Аудио: MPEG Audio 48000Hz stereo 256kbps
Семпл: https://www.sendspace.com/file/yxjofa

MediaInfo

General
ID : 1 (0x1)
Complete name : D:\Новая земля 2\Театр\Он и Она (2017)\Он и Она (НАДТ им. М. Горького) (2017).ts
Format : MPEG-TS
File size : 1.34 GiB
Duration : 1 h 12 min
Overall bit rate mode : Variable
Overall bit rate : 2 646 kb/s
Video
ID : 801 (0x321)
Menu ID : 8 (0x8)
Format : AVC
Format/Info : Advanced Video Codec
Format profile : Main@L3
Format settings, CABAC : Yes
Format settings, ReFrames : 4 frames
Format settings, GOP : M=4, N=24
Codec ID : 27
Duration : 1 h 12 min
Bit rate : 2 256 kb/s
Width : 720 pixels
Height : 576 pixels
Display aspect ratio : 4:3
Frame rate : 25.000 FPS
Standard : PAL
Color space : YUV
Chroma subsampling : 4:2:0
Bit depth : 8 bits
Scan type : MBAFF
Scan type, store method : Separated fields
Scan order : Top Field First
Bits/(Pixel*Frame) : 0.218
Stream size : 1.14 GiB (85%)
Color range : Limited
Color primaries : BT.601 PAL
Transfer characteristics : BT.470 System B, BT.470 System G
Matrix coefficients : BT.601
Audio
ID : 802 (0x322)
Menu ID : 8 (0x8)
Format : MPEG Audio
Format version : Version 1
Format profile : Layer 2
Codec ID : 3
Duration : 1 h 12 min
Bit rate mode : Constant
Bit rate : 256 kb/s
Channel(s) : 2 channels
Sampling rate : 48.0 kHz
Compression mode : Lossy
Stream size : 133 MiB (10%)
Language : English
Text
ID : 803 (0x323)-800
Menu ID : 8 (0x8)
Format : Teletext Subtitle
Language : Russian
Language, more info : For hearing impaired people

Скриншот с названием постановки

[torrents24.ru].t37218.torrent 
Торрент: Зарегистрирован [ 2018-05-01 12:40 ] · AC94E9844DC3206AB2BD26958DA23D1F17C83CA7

Скачать .torrent

Скачать

14 KB

Статус: проверено
Скачан: 0 раз
Размер: 1,34 GB
Профиль [ЛС]
Показать сообщения:    

Текущее время: 21-Май 06:04

Часовой пояс: UTC + 3



Вы не можете начинать темы
Вы не можете отвечать на сообщения
Вы не можете редактировать свои сообщения
Вы не можете удалять свои сообщения
Вы не можете голосовать в опросах
Вы не можете прикреплять файлы к сообщениям
Вы можете скачивать файлы